<?xml version="1.0" standalone="no"?>
<!DOCTYPE svg PUBLIC "-//W3C//DTD SVG 1.1//EN" "http://www.w3.org/Graphics/SVG/1.1/DTD/svg11.dtd" >
<svg xmlns="http://www.w3.org/2000/svg" xmlns:xlink="http://www.w3.org/1999/xlink" version="1.1">
<metadata>
Created by FontForge 20170731 at Tue May 18 12:56:43 2010
 By Aleksey,,,
Generated in 2010 by FontLab Studio. Copyright info pending.
</metadata>
<defs>
<font id="Brown-Light" horiz-adv-x="570" >
  <font-face 
    font-family="Brown"
    font-weight="300"
    font-stretch="normal"
    units-per-em="1000"
    panose-1="0 0 0 0 0 0 0 0 0 0"
    ascent="800"
    descent="-200"
    x-height="456"
    cap-height="700"
    bbox="-90 -250 1330 1084"
    underline-thickness="45"
    underline-position="-232"
    unicode-range="U+0020-FB04"
  />
<missing-glyph horiz-adv-x="530" 
d="M75 0v700h380v-700h-380zM132 646v-592h266v592h-266z" />
    <glyph glyph-name="uniFB00" unicode="ff" horiz-adv-x="690" 
d="M670 715l-11 -53q-15 4 -34 4q-59 0 -89 -43q-21 -31 -21 -95v-72h155v-54h-155v-402h-57v402h-273v-402h-57v402h-118v54h118v69q0 93 38 139q47 56 130 56q21 0 44 -5l-11 -53q-15 4 -34 4q-59 0 -89 -43q-21 -31 -21 -95v-72h273v69q0 93 38 139q47 56 130 56
q21 0 44 -5z" />
    <glyph glyph-name="fi" unicode="fi" horiz-adv-x="577" 
d="M340 715l-11 -53q-15 4 -34 4q-59 0 -89 -43q-21 -31 -21 -95v-72h307v-456h-57v402h-250v-402h-57v402h-118v54h118v69q0 93 38 139q47 56 130 56q21 0 44 -5zM413 614q0 21 14.5 36t35.5 15t36 -15t15 -36t-15 -35.5t-36 -14.5t-35.5 14.5t-14.5 35.5z" />
    <glyph glyph-name="fl" unicode="fl" horiz-adv-x="577" 
d="M435 0v402h-250v-402h-57v402h-118v54h118v69q0 93 38 139q47 56 130 56q21 0 44 -5l-11 -53q-15 4 -34 4q-59 0 -89 -43q-21 -31 -21 -95v-72h250v254h57v-710h-57z" />
    <glyph glyph-name="uniFB03" unicode="ffi" horiz-adv-x="897" 
d="M755 402h-250v-402h-57v402h-263v-402h-57v402h-118v54h118v69q0 93 38 139q47 56 130 56q21 0 44 -5l-11 -53q-15 4 -34 4q-59 0 -89 -43q-21 -31 -21 -95v-72h263v69q0 93 38 139q47 56 130 56q21 0 44 -5l-11 -53q-15 4 -34 4q-59 0 -89 -43q-21 -31 -21 -95v-72h307
v-456h-57v402zM733 614q0 21 14.5 36t35.5 15t36 -15t15 -36t-15 -35.5t-36 -14.5t-35.5 14.5t-14.5 35.5z" />
    <glyph glyph-name="uniFB04" unicode="ffl" horiz-adv-x="897" 
d="M755 402h-250v-402h-57v402h-263v-402h-57v402h-118v54h118v69q0 93 38 139q47 56 130 56q21 0 44 -5l-11 -53q-15 4 -34 4q-59 0 -89 -43q-21 -31 -21 -95v-72h263v69q0 93 38 139q47 56 130 56q21 0 44 -5l-11 -53q-15 4 -34 4q-59 0 -89 -43q-21 -31 -21 -95v-72h250
v254h57v-710h-57v402z" />
    <glyph glyph-name=".notdef" horiz-adv-x="530" 
d="M75 0v700h380v-700h-380zM132 646v-592h266v592h-266z" />
    <glyph glyph-name=".null" horiz-adv-x="0" 
 />
    <glyph glyph-name="nonmarkingreturn" horiz-adv-x="333" 
 />
    <glyph glyph-name="space" unicode=" " horiz-adv-x="270" 
 />
    <glyph glyph-name="exclam" unicode="!" horiz-adv-x="240" 
d="M102 210l-10 246v244h57v-244l-10 -246h-37zM68 42q0 22 15 37t37 15t37 -15t15 -37t-15 -37t-37 -15t-37 15t-15 37z" />
    <glyph glyph-name="quotedbl" unicode="&#x22;" horiz-adv-x="410" 
d="M90 446l-10 254h57l-10 -254h-37zM283 446l-10 254h57l-10 -254h-37z" />
    <glyph glyph-name="numbersign" unicode="#" horiz-adv-x="630" 
d="M551 700l-60 -220h99v-54h-113l-40 -152h99v-54h-114l-59 -220h-57l60 220h-170l-60 -220h-57l60 220h-99v54h113l40 152h-99v54h114l59 220h57l-59 -220h170l59 220h57zM250 426l-40 -152h170l40 152h-170z" />
    <glyph glyph-name="dollar" unicode="$" horiz-adv-x="516" 
d="M35 108l44 39q77 -100 188 -100q56 0 100 36.5t44 94.5q0 44 -26.5 77t-59.5 48.5t-85.5 38.5t-80.5 40q-95 58 -95 144q0 72 46.5 122t119.5 60v107h57v-106q84 -8 155 -69l-38 -44q-65 57 -139 57q-60 0 -100.5 -34t-40.5 -90q0 -37 25 -65t56.5 -42t81 -35.5
t78.5 -39.5q106 -66 106 -169q0 -77 -52 -128.5t-132 -58.5v-106h-57v107q-118 14 -195 116z" />
    <glyph glyph-name="percent" unicode="%" horiz-adv-x="890" 
d="M355 531q0 54 -35 91.5t-87 37.5q-51 0 -85.5 -37.5t-34.5 -91.5t34.5 -91.5t85.5 -37.5q52 0 87 37.5t35 91.5zM60 531q0 75 50 127t124 52t124 -52t50 -127t-50 -127t-124 -52t-124 52t-50 127zM777 169q0 54 -35 91.5t-87 37.5q-51 0 -85.5 -37.5t-34.5 -91.5
t34.5 -91.5t85.5 -37.5q52 0 87 37.5t35 91.5zM482 169q0 75 50 127t124 52t124 -52t50 -127t-50 -127t-124 -52t-124 52t-50 127zM267 0h-52l408 700h52z" />
    <glyph glyph-name="ampersand" unicode="&#x26;" horiz-adv-x="636" 
d="M525 134l141 -134h-79l-93 89q-84 -99 -224 -99q-104 0 -177 60.5t-73 150.5q0 123 137 209q-83 81 -83 158q0 59 40.5 100.5t105.5 41.5t105.5 -41.5t40.5 -100.5q0 -91 -120 -166l237 -227q26 57 26 118q0 49 -15 118l56 13q16 -64 16 -131q0 -86 -41 -159zM77 201
q0 -64 55 -110.5t138 -46.5q119 0 183 83l-254 244q-61 -39 -91.5 -79.5t-30.5 -90.5zM309 568q0 39 -25.5 63.5t-63.5 24.5t-63.5 -24.5t-25.5 -63.5q0 -55 64 -117l11 -11q49 32 76 61.5t27 66.5z" />
    <glyph glyph-name="quotesingle" unicode="'" horiz-adv-x="217" 
d="M90 446l-10 254h57l-10 -254h-37z" />
    <glyph glyph-name="parenleft" unicode="(" horiz-adv-x="425" 
d="M217 250q0 -237 138 -427l-46 -33q-149 204 -149 460t149 460l46 -33q-138 -190 -138 -427z" />
    <glyph glyph-name="parenright" unicode=")" horiz-adv-x="425" 
d="M208 250q0 237 -138 427l46 33q149 -204 149 -460t-149 -460l-46 33q138 190 138 427z" />
    <glyph glyph-name="asterisk" unicode="*" horiz-adv-x="494" 
d="M453 532l-168 -53l103 -142l-40 -29l-102 141l-103 -141l-40 29l102 140l-165 55l15 47l166 -54v175h50v-175l166 54z" />
    <glyph glyph-name="plus" unicode="+" horiz-adv-x="530" 
d="M475 229h-183v-183h-54v183h-183v54h183v183h54v-183h183v-54z" />
    <glyph glyph-name="comma" unicode="," horiz-adv-x="304" 
d="M56 -140l71 240h75l-96 -240h-50z" />
    <glyph glyph-name="hyphen" unicode="-" horiz-adv-x="420" 
d="M80 274h260v-49h-260v49z" />
    <glyph glyph-name="period" unicode="." horiz-adv-x="304" 
d="M110 42q0 22 15 37t37 15t37 -15t15 -37t-15 -37t-37 -15t-37 15t-15 37z" />
    <glyph glyph-name="slash" unicode="/" horiz-adv-x="395" 
d="M63 0h-58l327 700h58z" />
    <glyph glyph-name="zero" unicode="0" horiz-adv-x="590" 
d="M120 350q0 -303 175 -303t175 303t-175 303t-175 -303zM60 350q0 108 22 186t76 126t137 48t137 -48t76 -126t22 -186t-22 -186t-76 -126t-137 -48t-137 48t-76 126t-22 186z" />
    <glyph glyph-name="one" unicode="1" horiz-adv-x="375" 
d="M55 546v60l155 94h40v-700h-60v621z" />
    <glyph glyph-name="two" unicode="2" horiz-adv-x="520" 
d="M99 531l-54 19q16 69 68.5 114.5t126.5 45.5q87 0 143.5 -56t56.5 -141t-82 -184l-225 -272h317v-57h-410v37l268 322q72 86 72 152q0 62 -39 102t-99 40q-55 0 -92.5 -33t-50.5 -89z" />
    <glyph glyph-name="three" unicode="3" horiz-adv-x="548" 
d="M40 100l48 31q53 -84 162 -84q77 0 125 52t48 126q0 76 -53 127t-133 51q-41 0 -71 -10v37l185 213h-278v57h370v-37l-178 -206q94 -7 156 -73t62 -159q0 -97 -66 -166t-167 -69q-69 0 -123.5 29t-86.5 81z" />
    <glyph glyph-name="four" unicode="4" 
d="M370 0v180h-355v37l375 483h40v-463h115v-57h-115v-180h-60zM104 237h266v343z" />
    <glyph glyph-name="five" unicode="5" horiz-adv-x="545" 
d="M126 700h330v-57h-280l-29 -206q48 23 98 23q99 0 167 -68.5t68 -166.5q0 -97 -67.5 -166t-165.5 -69q-61 0 -113 28t-84 75l47 32q25 -36 64 -57t85 -21q75 0 124.5 52.5t49.5 125.5q0 74 -51.5 126t-126.5 52q-70 0 -124 -49l-40 6z" />
    <glyph glyph-name="six" unicode="6" horiz-adv-x="575" 
d="M387 700l-168 -259q33 11 72 11q99 0 164 -67t65 -164q0 -98 -66.5 -164.5t-166.5 -66.5q-99 1 -165.5 67t-66.5 160q0 75 49 151l215 332h68zM287 395q-74 0 -129 -50q-43 -70 -43 -124q0 -73 49.5 -123.5t124.5 -50.5q73 0 122 50t49 124q0 75 -49 124.5t-124 49.5z
" />
    <glyph glyph-name="seven" unicode="7" horiz-adv-x="520" 
d="M50 643v57h430v-37l-317 -663h-63l308 643h-358z" />
    <glyph glyph-name="eight" unicode="8" 
d="M285 -10q-99 0 -164.5 60.5t-65.5 152.5q0 61 32.5 112t88.5 78q-76 50 -76 141q0 74 53 125t132 51t132 -51t53 -125q0 -91 -76 -141q56 -27 88.5 -78t32.5 -112q0 -92 -65.5 -152.5t-164.5 -60.5zM285 653q-54 0 -89.5 -34.5t-35.5 -84.5q0 -49 35 -83t90 -35
q55 1 90 35t35 83q0 50 -35.5 84.5t-89.5 34.5zM285 47q74 0 122 45t48 111t-48 111t-122 45t-122 -45t-48 -111t48 -111t122 -45z" />
    <glyph glyph-name="nine" unicode="9" horiz-adv-x="575" 
d="M188 0l168 259q-33 -11 -72 -11q-99 0 -164 67t-65 164q0 98 66.5 164.5t166.5 66.5q99 -1 165.5 -67t66.5 -160q0 -75 -49 -151l-215 -332h-68zM288 305q74 0 129 50q43 70 43 124q0 73 -49.5 123.5t-124.5 50.5q-73 0 -122 -50t-49 -124q0 -75 49 -124.5t124 -49.5z
" />
    <glyph glyph-name="colon" unicode=":" horiz-adv-x="304" 
d="M110 42q0 22 15 37t37 15t37 -15t15 -37t-15 -37t-37 -15t-37 15t-15 37zM110 414q0 22 15 37t37 15t37 -15t15 -37t-15 -37t-37 -15t-37 15t-15 37z" />
    <glyph glyph-name="semicolon" unicode=";" horiz-adv-x="304" 
d="M56 -140l71 240h75l-96 -240h-50zM110 414q0 22 15 37t37 15t37 -15t15 -37t-15 -37t-37 -15t-37 15t-15 37z" />
    <glyph glyph-name="less" unicode="&#x3c;" horiz-adv-x="530" 
d="M475 123v-58l-420 174v34l420 174v-58l-323 -133z" />
    <glyph glyph-name="equal" unicode="=" horiz-adv-x="530" 
d="M475 317h-420v54h420v-54zM475 141h-420v54h420v-54z" />
    <glyph glyph-name="greater" unicode="&#x3e;" horiz-adv-x="530" 
d="M55 65v58l323 133l-323 133v58l420 -174v-34z" />
    <glyph glyph-name="question" unicode="?" horiz-adv-x="500" 
d="M124 559l-54 16q15 59 69 97t126 38q85 0 142.5 -52.5t57.5 -127.5q0 -95 -98 -166q-13 -10 -46 -30.5t-45.5 -33t-12.5 -27.5q0 -21 34 -53l-42 -40q-27 27 -38 47t-11 46q0 24 13.5 44.5t29 32t45 30.5t43.5 29q71 54 71 121q0 53 -40.5 89.5t-102.5 36.5
q-53 0 -92 -27t-49 -70zM208 42q0 22 15 37t37 15t37 -15t15 -37t-15 -37t-37 -15t-37 15t-15 37z" />
    <glyph glyph-name="at" unicode="@" horiz-adv-x="1000" 
d="M624 172v156q-17 35 -52 59t-81 24q-65 0 -111 -46t-46 -115q0 -68 45.5 -114.5t111.5 -46.5q47 0 81.5 23.5t51.5 59.5zM636 104q-50 -69 -145 -69q-78 0 -137 47q-77 61 -77 168t77 168q59 47 137 47q84 0 133 -58v48h57v-274q0 -92 78 -92q56 0 85 51t29 133
q0 165 -107 264t-266 99q-154 0 -263.5 -113t-109.5 -273q0 -161 112 -273.5t269 -112.5q121 0 221 77l31 -47q-109 -84 -253 -84q-181 0 -309 129t-128 311t128 311t309 129q179 0 301 -116t122 -301q0 -102 -45.5 -170t-126.5 -68q-90 0 -122 69z" />
    <glyph glyph-name="A" unicode="A" horiz-adv-x="654" 
d="M307 700h40l302 -700h-60l-92 211h-340l-92 -211h-60zM327 606l-146 -338h291z" />
    <glyph glyph-name="B" unicode="B" horiz-adv-x="605" 
d="M510 529q0 -81 -63 -132q55 -25 89 -76.5t34 -113.5q0 -92 -69 -154q-59 -53 -159 -53h-252v700h229q87 0 137 -47q54 -51 54 -124zM339 358h-189v-301h189q81 0 125 42q46 44 46 108t-46 108q-45 43 -125 43zM150 415h166q69 0 104 37q30 32 30 77t-30 77
q-35 37 -104 37h-166v-228z" />
    <glyph glyph-name="C" unicode="C" horiz-adv-x="685" 
d="M622 157l43 -38q-46 -59 -118 -94t-152 -35q-156 0 -258 102t-102 258q0 152 100 256t251 104q75 0 141.5 -28.5t112.5 -78.5l-41 -41q-83 91 -213 91q-125 0 -208 -88t-83 -215q0 -129 84 -216t213 -87q70 0 131 30t99 80z" />
    <glyph glyph-name="D" unicode="D" horiz-adv-x="705" 
d="M610 350q0 70 -29 131.5t-81 102.5q-76 59 -213 59h-137v-586h137q137 0 213 59q52 41 81 102.5t29 131.5zM670 350q0 -86 -37 -161t-102 -123q-90 -66 -241 -66h-200v700h200q151 0 241 -66q65 -48 102 -123t37 -161z" />
    <glyph glyph-name="E" unicode="E" horiz-adv-x="520" 
d="M470 643h-320v-228h250v-57h-250v-301h330v-57h-390v700h380v-57z" />
    <glyph glyph-name="F" unicode="F" horiz-adv-x="490" 
d="M470 643h-320v-228h250v-57h-250v-358h-60v700h380v-57z" />
    <glyph glyph-name="G" unicode="G" horiz-adv-x="730" 
d="M605 135v223h-230v57h290v-295q-46 -59 -118 -94.5t-152 -35.5q-156 0 -258 102t-102 258q0 152 100 256t251 104q75 0 141.5 -28.5t112.5 -78.5l-41 -41q-83 91 -213 91q-125 0 -208 -88t-83 -215q0 -129 84 -216t213 -87q128 0 213 88z" />
    <glyph glyph-name="H" unicode="H" horiz-adv-x="750" 
d="M600 0v358h-450v-358h-60v700h60v-285h450v285h60v-700h-60z" />
    <glyph glyph-name="I" unicode="I" horiz-adv-x="240" 
d="M90 0v700h60v-700h-60z" />
    <glyph glyph-name="J" unicode="J" horiz-adv-x="435" 
d="M0 102l54 22q14 -34 46 -55.5t70 -21.5q72 0 108 60q17 29 17 85v508h60v-505q0 -79 -31 -124q-25 -38 -65.5 -59.5t-88.5 -21.5q-56 0 -102.5 31t-67.5 81z" />
    <glyph glyph-name="K" unicode="K" horiz-adv-x="610" 
d="M590 0h-80l-360 354v-354h-60v700h60v-314l330 314h80l-346 -331z" />
    <glyph glyph-name="L" unicode="L" horiz-adv-x="500" 
d="M150 700v-643h330v-57h-390v700h60z" />
    <glyph glyph-name="M" unicode="M" horiz-adv-x="834" 
d="M684 554l-247 -414h-40l-247 414v-554h-60v700h40l287 -481l287 481h40v-700h-60v554z" />
    <glyph glyph-name="N" unicode="N" horiz-adv-x="750" 
d="M90 0v700h40l470 -583v583h60v-700h-40l-470 583v-583h-60z" />
    <glyph glyph-name="O" unicode="O" horiz-adv-x="766" 
d="M35 350q0 153 100 256.5t248 103.5t248 -103.5t100 -256.5t-100 -256.5t-248 -103.5t-248 103.5t-100 256.5zM95 350q0 -127 81.5 -215t206.5 -88t206.5 88t81.5 215t-81.5 215t-206.5 88t-206.5 -88t-81.5 -215z" />
    <glyph glyph-name="P" unicode="P" horiz-adv-x="580" 
d="M349 338h-199v-338h-60v700h259q87 0 137 -42q64 -54 64 -139t-64 -139q-50 -42 -137 -42zM150 395h196q71 0 108 37q36 36 36 87t-36 87q-37 37 -108 37h-196v-248z" />
    <glyph glyph-name="Q" unicode="Q" horiz-adv-x="771" 
d="M35 350q0 153 100 256.5t248 103.5t248 -103.5t100 -256.5q0 -137 -83 -238l103 -112h-76l-66 73q-96 -83 -226 -83q-148 0 -248 103.5t-100 256.5zM391 314l41 36l176 -193q63 82 63 193q0 127 -81.5 215t-206.5 88t-206.5 -88t-81.5 -215t81.5 -215t206.5 -88
q108 0 187 69z" />
    <glyph glyph-name="R" unicode="R" horiz-adv-x="615" 
d="M610 0h-72l-270 358h-118v-358h-60v700h239q86 0 136 -45q55 -50 55 -126t-55 -126q-45 -42 -125 -45zM150 415h176q65 0 97 30q37 34 37 84t-37 84q-32 30 -97 30h-176v-228z" />
    <glyph glyph-name="S" unicode="S" horiz-adv-x="516" 
d="M35 108l44 39q77 -100 188 -100q56 0 100 36.5t44 94.5q0 44 -26.5 77t-59.5 48.5t-85.5 38.5t-80.5 40q-95 58 -95 144q0 81 57 132.5t142 51.5q99 0 179 -70l-38 -44q-65 57 -139 57q-60 0 -100.5 -34t-40.5 -90q0 -37 25 -65t56.5 -42t81 -35.5t78.5 -39.5
q106 -66 106 -169q0 -82 -58.5 -135t-145.5 -53q-142 0 -232 118z" />
    <glyph glyph-name="T" unicode="T" horiz-adv-x="500" 
d="M20 700h460v-57h-200v-643h-60v643h-200v57z" />
    <glyph glyph-name="U" unicode="U" horiz-adv-x="720" 
d="M360 -10q-75 0 -138.5 34t-100.5 93q-41 65 -41 163v420h60v-423q0 -80 31 -130q30 -46 80 -73t109 -27t109 27t80 73q31 50 31 130v423h60v-420q0 -98 -41 -163q-37 -59 -100.5 -93t-138.5 -34z" />
    <glyph glyph-name="V" unicode="V" horiz-adv-x="630" 
d="M558 700h62l-285 -700h-40l-285 700h62l243 -600z" />
    <glyph glyph-name="W" unicode="W" horiz-adv-x="942" 
d="M451 700h40l187 -579l188 579h61l-230 -700h-40l-186 575l-186 -575h-40l-230 700h61l188 -579z" />
    <glyph glyph-name="X" unicode="X" horiz-adv-x="610" 
d="M88 0h-68l246 384l-202 316h67l174 -271l174 271h67l-202 -316l246 -384h-68l-217 339z" />
    <glyph glyph-name="Y" unicode="Y" horiz-adv-x="560" 
d="M550 700l-240 -371v-329h-60v329l-240 371h68l202 -313l202 313h68z" />
    <glyph glyph-name="Z" unicode="Z" horiz-adv-x="585" 
d="M40 37l409 606h-379v57h460v-37l-407 -606h427v-57h-510v37z" />
    <glyph glyph-name="bracketleft" unicode="[" horiz-adv-x="425" 
d="M160 -200v900h225v-54h-168v-792h168v-54h-225z" />
    <glyph glyph-name="backslash" unicode="\" horiz-adv-x="395" 
d="M390 0h-58l-327 700h58z" />
    <glyph glyph-name="bracketright" unicode="]" horiz-adv-x="425" 
d="M265 700v-900h-225v54h168v792h-168v54h225z" />
    <glyph glyph-name="asciicircum" unicode="^" horiz-adv-x="451" 
d="M30 350l177 350h37l177 -350h-59l-137 266l-136 -266h-59z" />
    <glyph glyph-name="underscore" unicode="_" horiz-adv-x="450" 
d="M20 0h410v-49h-410v49z" />
    <glyph glyph-name="grave" unicode="`" horiz-adv-x="280" 
d="M70 670h75l65 -140h-45z" />
    <glyph glyph-name="a" unicode="a" horiz-adv-x="582" 
d="M497 0h-55v67q-57 -77 -164 -77q-76 0 -136 43q-45 32 -71 83t-26 112q0 115 85 187q63 51 145 51q102 0 167 -73v63h55v-456zM440 144v176q-19 33 -63.5 62.5t-100.5 29.5q-62 0 -110 -39q-64 -53 -64 -145q0 -47 19.5 -87t52.5 -63q49 -34 103 -34q50 0 93 26.5
t70 73.5z" />
    <glyph glyph-name="b" unicode="b" horiz-adv-x="582" 
d="M142 320v-176q27 -47 70 -73.5t93 -26.5q54 0 103 34q33 23 52.5 63t19.5 87q0 92 -64 145q-48 39 -110 39q-56 0 -100.5 -29.5t-63.5 -62.5zM304 -10q-107 0 -164 77v-67h-55v710h57v-315q66 71 165 71q82 0 145 -51q85 -72 85 -187q0 -61 -26 -112t-71 -83
q-60 -43 -136 -43z" />
    <glyph glyph-name="c" unicode="c" horiz-adv-x="505" 
d="M434 107l41 -38q-71 -79 -180 -79q-99 0 -172 66t-73 172q0 98 67.5 168t168.5 70q103 0 174 -71l-36 -41q-60 58 -138 58q-73 0 -126 -53.5t-53 -130.5t53.5 -130.5t133.5 -53.5t140 63z" />
    <glyph glyph-name="d" unicode="d" horiz-adv-x="582" 
d="M440 144v176q-19 33 -63.5 62.5t-100.5 29.5q-62 0 -110 -39q-64 -53 -64 -145q0 -47 19.5 -87t52.5 -63q49 -34 103 -34q50 0 93 26.5t70 73.5zM278 -10q-76 0 -136 43q-45 32 -71 83t-26 112q0 115 85 187q63 51 145 51q99 0 165 -71v315h57v-710h-55v67
q-57 -77 -164 -77z" />
    <glyph glyph-name="e" unicode="e" horiz-adv-x="520" 
d="M263 412q-60 0 -102.5 -38t-55.5 -99h311q-9 60 -51.5 98.5t-101.5 38.5zM420 112l40 -38q-28 -36 -76.5 -60t-109.5 -24q-98 0 -163.5 66.5t-65.5 171.5q0 100 61.5 169t156.5 69q91 0 151.5 -64t60.5 -159q0 -11 -1 -20h-372q3 -76 49.5 -127.5t122.5 -51.5
q90 0 146 68z" />
    <glyph glyph-name="f" unicode="f" horiz-adv-x="360" 
d="M340 715l-11 -53q-15 4 -34 4q-59 0 -89 -43q-21 -31 -21 -95v-72h155v-54h-155v-402h-57v402h-118v54h118v69q0 93 38 139q47 56 130 56q21 0 44 -5z" />
    <glyph glyph-name="g" unicode="g" horiz-adv-x="582" 
d="M497 2q0 -100 -25 -147q-56 -105 -198 -105q-134 0 -207 109l45 33q55 -88 163 -88q107 0 147 78q18 36 18 118v65q-58 -75 -162 -75q-76 0 -136 43q-45 32 -71 83t-26 112q0 115 85 187q63 51 145 51q102 0 167 -73v63h55v-454zM440 144v176q-19 33 -63.5 62.5
t-100.5 29.5q-62 0 -110 -39q-64 -53 -64 -145q0 -47 19.5 -87t52.5 -63q49 -34 103 -34q50 0 93 26.5t70 73.5z" />
    <glyph glyph-name="h" unicode="h" horiz-adv-x="577" 
d="M142 710v-315q53 71 159 71q105 0 162 -77q39 -51 39 -146v-243h-57v239q0 75 -26 112q-42 61 -119 61q-49 0 -90.5 -25t-67.5 -70v-317h-57v710h57z" />
    <glyph glyph-name="i" unicode="i" horiz-adv-x="227" 
d="M85 0v456h57v-456h-57zM63 614q0 21 14.5 36t35.5 15t36 -15t15 -36t-15 -35.5t-36 -14.5t-35.5 14.5t-14.5 35.5z" />
    <glyph glyph-name="j" unicode="j" horiz-adv-x="270" 
d="M-10 -247l5 53q10 -2 25 -2q60 0 89 43q19 28 19 95v514h57v-514q0 -94 -36 -137q-46 -55 -126 -55q-21 0 -33 3zM106 614q0 21 14.5 36t35.5 15t36 -15t15 -36t-15 -35.5t-36 -14.5t-35.5 14.5t-14.5 35.5z" />
    <glyph glyph-name="k" unicode="k" horiz-adv-x="496" 
d="M481 0h-80l-259 241v-241h-57v710h57v-444l233 190h85l-250 -205z" />
    <glyph glyph-name="l" unicode="l" horiz-adv-x="227" 
d="M85 0v710h57v-710h-57z" />
    <glyph glyph-name="m" unicode="m" horiz-adv-x="917" 
d="M140 456v-62q25 33 66 52.5t88 19.5q56 0 101.5 -26t69.5 -71q67 97 179 97q55 0 100.5 -26t70.5 -70q27 -49 27 -129v-241h-57v234q0 79 -26 118q-40 60 -115 60q-51 0 -92.5 -30.5t-64.5 -75.5q5 -30 5 -65v-241h-57v234q0 79 -26 118q-40 60 -115 60q-46 0 -87.5 -26
t-64.5 -69v-317h-57v456h55z" />
    <glyph glyph-name="n" unicode="n" horiz-adv-x="577" 
d="M140 456v-64q56 74 161 74t162 -77q39 -51 39 -146v-243h-57v239q0 75 -26 112q-42 61 -119 61q-49 0 -90.5 -25t-67.5 -70v-317h-57v456h55z" />
    <glyph glyph-name="o" unicode="o" horiz-adv-x="560" 
d="M458 228q0 77 -50.5 130.5t-127.5 53.5t-127.5 -53.5t-50.5 -130.5t50.5 -130.5t127.5 -53.5t127.5 53.5t50.5 130.5zM515 228q0 -99 -67 -168.5t-168 -69.5t-168 69.5t-67 168.5t67 168.5t168 69.5t168 -69.5t67 -168.5z" />
    <glyph glyph-name="p" unicode="p" horiz-adv-x="582" 
d="M142 -240h-57v696h55v-63q65 73 167 73q82 0 145 -51q85 -72 85 -187q0 -61 -26 -112t-71 -83q-60 -43 -136 -43q-104 0 -162 75v-305zM142 320v-176q27 -47 70 -73.5t93 -26.5q54 0 103 34q33 23 52.5 63t19.5 87q0 92 -64 145q-48 39 -110 39q-56 0 -100.5 -29.5
t-63.5 -62.5z" />
    <glyph glyph-name="q" unicode="q" horiz-adv-x="582" 
d="M497 -240h-57v305q-58 -75 -162 -75q-76 0 -136 43q-45 32 -71 83t-26 112q0 115 85 187q63 51 145 51q102 0 167 -73v63h55v-696zM440 144v176q-19 33 -63.5 62.5t-100.5 29.5q-62 0 -110 -39q-64 -53 -64 -145q0 -47 19.5 -87t52.5 -63q49 -34 103 -34q50 0 93 26.5
t70 73.5z" />
    <glyph glyph-name="r" unicode="r" horiz-adv-x="350" 
d="M320 464l-8 -53q-6 1 -27 1q-46 0 -85.5 -28t-57.5 -73v-311h-57v456h57v-60q18 28 56.5 49t87.5 21q22 0 34 -2z" />
    <glyph glyph-name="s" unicode="s" horiz-adv-x="425" 
d="M40 55l35 44q65 -55 138 -55q44 0 74.5 22.5t30.5 57.5q0 32 -27 51t-66 29t-77.5 21.5t-65.5 38t-27 69.5q0 59 47 96t108 37q82 0 147 -44l-30 -47q-58 37 -114 37q-40 0 -70.5 -20.5t-30.5 -57.5q0 -27 27 -44t65.5 -27t77.5 -22.5t66 -41t27 -72.5q0 -62 -45.5 -99.5
t-112.5 -37.5q-107 0 -177 65z" />
    <glyph glyph-name="t" unicode="t" horiz-adv-x="400" 
d="M345 456v-54h-155v-250q0 -51 20 -76q26 -32 76 -32q29 0 49 6l10 -52q-24 -8 -59 -8q-81 0 -122 52q-31 39 -31 112v248h-128v54h128v124h57v-124h155z" />
    <glyph glyph-name="u" unicode="u" horiz-adv-x="567" 
d="M427 0v62q-25 -32 -66.5 -52t-87.5 -20q-56 0 -101 25t-70 69q-27 49 -27 129v243h57v-234q0 -79 26 -118q40 -60 115 -60q46 0 87.5 26t64.5 69v317h57v-456h-55z" />
    <glyph glyph-name="v" unicode="v" horiz-adv-x="490" 
d="M264 0h-37l-212 456h62l168 -364l168 364h62z" />
    <glyph glyph-name="w" unicode="w" horiz-adv-x="762" 
d="M381 363l-148 -363h-37l-176 456h59l138 -358l146 358h36l146 -358l138 358h59l-176 -456h-37z" />
    <glyph glyph-name="x" unicode="x" horiz-adv-x="462" 
d="M380 0l-149 207l-149 -207h-67l176 245l-151 211h67l124 -173l124 173h67l-151 -211l176 -245h-67z" />
    <glyph glyph-name="y" unicode="y" horiz-adv-x="487" 
d="M156 -240h-60l125 277l-206 419h64l171 -354l161 354h61z" />
    <glyph glyph-name="z" unicode="z" horiz-adv-x="470" 
d="M40 34l304 368h-279v54h365v-34l-305 -368h315v-54h-400v34z" />
    <glyph glyph-name="braceleft" unicode="{" horiz-adv-x="425" 
d="M174 250q44 -18 44 -88q0 -39 -5.5 -107t-5.5 -99q0 -58 21.5 -80t80.5 -22h26v-54h-30q-84 0 -119.5 37t-35.5 113q0 39 5 110.5t5 105.5q0 36 -17.5 51.5t-52.5 15.5v34q35 0 52.5 15.5t17.5 51.5q0 34 -5 105.5t-5 110.5q0 76 35.5 113t119.5 37h30v-54h-26
q-59 0 -80.5 -22t-21.5 -80q0 -31 5.5 -99t5.5 -107q0 -70 -44 -88z" />
    <glyph glyph-name="bar" unicode="|" horiz-adv-x="177" 
d="M60 -200v900h57v-900h-57z" />
    <glyph glyph-name="braceright" unicode="}" horiz-adv-x="425" 
d="M251 250q-44 18 -44 88q0 39 5.5 107t5.5 99q0 58 -21.5 80t-80.5 22h-26v54h30q84 0 119.5 -37t35.5 -113q0 -39 -5 -110.5t-5 -105.5q0 -36 17.5 -51.5t52.5 -15.5v-34q-35 0 -52.5 -15.5t-17.5 -51.5q0 -34 5 -105.5t5 -110.5q0 -76 -35.5 -113t-119.5 -37h-30v54h26
q59 0 80.5 22t21.5 80q0 31 -5.5 99t-5.5 107q0 70 44 88z" />
    <glyph glyph-name="asciitilde" unicode="~" horiz-adv-x="520" 
d="M87 196l-47 23q31 108 122 108q35 0 71 -22t67.5 -44t55.5 -22q51 0 77 77l47 -23q-31 -108 -122 -108q-35 0 -71 22t-67.5 44t-55.5 22q-51 0 -77 -77z" />
    <glyph glyph-name="exclamdown" unicode="&#xa1;" horiz-adv-x="240" 
d="M92 4l10 246h37l10 -246v-244h-57v244zM68 414q0 22 15 37t37 15t37 -15t15 -37t-15 -37t-37 -15t-37 15t-15 37z" />
    <glyph glyph-name="cent" unicode="&#xa2;" horiz-adv-x="500" 
d="M429 107l41 -38q-63 -70 -160 -78v-106h-57v108q-88 13 -148 76.5t-60 158.5q0 90 58.5 158t149.5 78v117h57v-117q82 -8 145 -69l-36 -41q-60 58 -138 58q-73 0 -126 -53.5t-53 -130.5t53.5 -130.5t133.5 -53.5t140 63z" />
    <glyph glyph-name="sterling" unicode="&#xa3;" horiz-adv-x="515" 
d="M55 337v54h84q-38 88 -38 135q0 81 52.5 132t130.5 52q58 0 100.5 -28t65.5 -67l-46 -32q-42 73 -120 73q-47 0 -86.5 -33.5t-39.5 -96.5q0 -10 2 -22t4 -20.5t8 -23t8.5 -21t10.5 -25t10 -23.5h128v-54h-108q17 -51 17 -95q0 -108 -74 -188h321v-54h-450v34
q64 24 105 80t41 129q0 39 -20 94h-106z" />
    <glyph glyph-name="currency" unicode="&#xa4;" horiz-adv-x="540" 
d="M74 351q0 64 41 118l-75 75l37 37l75 -75q54 41 118 41q65 0 119 -41l74 75l37 -37l-74 -75q40 -53 40 -118q0 -66 -40 -119l74 -74l-37 -37l-74 74q-53 -40 -119 -40q-65 0 -118 40l-75 -74l-37 37l75 74q-41 54 -41 119zM131 351q0 -58 40.5 -98.5t98.5 -40.5
t98.5 40.5t40.5 98.5t-40.5 98.5t-98.5 40.5t-98.5 -40.5t-40.5 -98.5z" />
    <glyph glyph-name="yen" unicode="&#xa5;" horiz-adv-x="560" 
d="M550 700l-159 -245h109v-54h-144l-46 -72v-29h190v-54h-190v-246h-60v246h-190v54h190v29l-47 72h-143v54h108l-158 245h68l202 -313l202 313h68z" />
    <glyph glyph-name="brokenbar" unicode="&#xa6;" horiz-adv-x="217" 
d="M80 -200v390h57v-390h-57zM80 310v390h57v-390h-57z" />
    <glyph glyph-name="section" unicode="&#xa7;" horiz-adv-x="580" 
d="M520 207q0 -93 -81 -150q44 -41 44 -109q0 -78 -58 -128t-141 -50q-99 0 -179 70l37 43q64 -56 140 -56q59 0 100 33.5t41 87.5q0 28 -12 49t-37 36.5t-47 24t-59 20.5q-37 11 -60.5 20t-54.5 26t-49 36t-31 48t-13 65q0 92 81 149q-44 42 -44 110q0 78 58 128t141 50
q99 0 179 -70l-37 -43q-64 56 -140 56q-59 0 -100 -33.5t-41 -87.5q0 -28 12 -49t37 -36.5t47 -24t59 -20.5q37 -11 60.5 -20t54.5 -26t49 -36t31 -48t13 -65zM319 340q-97 32 -125 46q-75 -43 -75 -113q0 -50 37.5 -79.5t104.5 -53.5q95 -32 124 -47q76 43 76 114
q0 50 -38 80.5t-104 52.5z" />
    <glyph glyph-name="dieresis" unicode="&#xa8;" horiz-adv-x="404" 
d="M233 594q0 21 14.5 36t35.5 15t36 -15t15 -36t-15 -35.5t-36 -14.5t-35.5 14.5t-14.5 35.5zM70 594q0 21 14.5 36t35.5 15t36 -15t15 -36t-15 -35.5t-36 -14.5t-35.5 14.5t-14.5 35.5z" />
    <glyph glyph-name="copyright" unicode="&#xa9;" horiz-adv-x="840" 
d="M552 500l-27 -35q-45 41 -101 41q-62 0 -102.5 -42.5t-40.5 -111.5q0 -67 40.5 -110t105.5 -43q61 0 110 42l27 -35q-56 -51 -137 -51q-84 0 -138.5 56.5t-54.5 140.5t54.5 141t135.5 57q75 0 128 -50zM70 350q0 145 102.5 247.5t247.5 102.5t247.5 -102.5t102.5 -247.5
t-102.5 -247.5t-247.5 -102.5t-247.5 102.5t-102.5 247.5zM117 350q0 -124 89.5 -213.5t213.5 -89.5t213.5 89.5t89.5 213.5t-89.5 213.5t-213.5 89.5t-213.5 -89.5t-89.5 -213.5z" />
    <glyph glyph-name="ordfeminine" unicode="&#xaa;" horiz-adv-x="406" 
d="M297 489v132q-38 43 -90 43q-48 0 -78 -31t-30 -78t30 -78t78 -31q52 0 90 43zM206 400q-68 0 -112 44.5t-44 110.5t44 110.5t112 44.5q59 0 91 -39v29h49v-290h-49v29q-32 -39 -91 -39z" />
    <glyph glyph-name="guillemotleft" unicode="&#xab;" horiz-adv-x="535" 
d="M424 420h71l-158 -185l158 -185h-71l-144 168v34zM224 420h71l-158 -185l158 -185h-71l-144 168v34z" />
    <glyph glyph-name="logicalnot" unicode="&#xac;" horiz-adv-x="530" 
d="M421 141v176h-366v54h420v-230h-54z" />
    <glyph glyph-name="registered" unicode="&#xae;" horiz-adv-x="840" 
d="M70 350q0 145 102.5 247.5t247.5 102.5t247.5 -102.5t102.5 -247.5t-102.5 -247.5t-247.5 -102.5t-247.5 102.5t-102.5 247.5zM117 350q0 -124 89.5 -213.5t213.5 -89.5t213.5 89.5t89.5 213.5t-89.5 213.5t-213.5 89.5t-213.5 -89.5t-89.5 -213.5zM574 161h-53l-129 188
h-50v-188h-47v383h132q60 0 89 -29t29 -69q0 -41 -29 -70q-23 -23 -69 -27zM342 392h82q45 0 61 19q13 15 13 35t-13 35q-16 19 -61 19h-82v-108z" />
    <glyph glyph-name="macron" unicode="&#xaf;" horiz-adv-x="420" 
d="M70 626h280v-50h-280v50z" />
    <glyph glyph-name="degree" unicode="&#xb0;" horiz-adv-x="390" 
d="M40 555q0 65 45 110t110 45t110 -45t45 -110t-45 -110t-110 -45t-110 45t-45 110zM91 555q0 -43 30 -73t73 -30t73.5 30t30.5 73t-30.5 73.5t-73.5 30.5t-73 -30.5t-30 -73.5z" />
    <glyph glyph-name="plusminus" unicode="&#xb1;" horiz-adv-x="530" 
d="M475 271h-183v-161h-54v161h-183v54h183v161h54v-161h183v-54zM475 26h-420v54h420v-54z" />
    <glyph glyph-name="twosuperior" unicode="&#xb2;" horiz-adv-x="278" 
d="M70 613l-41 17q26 80 107 80q45 0 76.5 -31t31.5 -75q0 -49 -53 -112l-88 -108h145v-44h-223v24l125 152q19 22 26.5 32t14 25.5t6.5 30.5q0 25 -17.5 43.5t-43.5 18.5q-46 0 -66 -53z" />
    <glyph glyph-name="threesuperior" unicode="&#xb3;" horiz-adv-x="282" 
d="M233 676l-79 -100q36 -9 61 -34q37 -37 37 -88t-36 -87.5t-91 -36.5q-36 0 -67 17t-48 44l38 27q11 -20 32.5 -32t44.5 -12q34 0 57 23t23 57q0 37 -25 59.5t-61 22.5q-24 0 -40 -7v24l80 103h-132v44h206v-24z" />
    <glyph glyph-name="acute" unicode="&#xb4;" horiz-adv-x="280" 
d="M135 670h75l-95 -140h-45z" />
    <glyph glyph-name="mu" unicode="&#xb5;" horiz-adv-x="577" 
d="M283 -10q-91 0 -141 65v-295h-57v696h57v-234q0 -79 26 -118q40 -60 115 -60q46 0 87.5 26t64.5 69v317h57v-456h-55v62q-25 -32 -66.5 -52t-87.5 -20z" />
    <glyph glyph-name="paragraph" unicode="&#xb6;" horiz-adv-x="655" 
d="M265 700h340v-54h-100v-846h-57v846h-146v-846h-57v470q-89 0 -152 63t-63 152q0 70 40.5 125.5t104.5 77.5q33 12 90 12zM87 485q0 -67 46 -114t112 -47v322q-66 0 -112 -47t-46 -114z" />
    <glyph glyph-name="periodcentered" unicode="&#xb7;" horiz-adv-x="304" 
d="M100 228q0 22 15 37t37 15t37 -15t15 -37t-15 -37t-37 -15t-37 15t-15 37z" />
    <glyph glyph-name="cedilla" unicode="&#xb8;" horiz-adv-x="240" 
d="M70 -140l55 150h45l-25 -150h-75z" />
    <glyph glyph-name="onesuperior" unicode="&#xb9;" horiz-adv-x="205" 
d="M103 639l-73 -37v48l93 50h27v-360h-47v299z" />
    <glyph glyph-name="ordmasculine" unicode="&#xba;" horiz-adv-x="406" 
d="M50 555q0 65 43.5 110t109.5 45t109.5 -45t43.5 -110t-43.5 -110t-109.5 -45t-109.5 45t-43.5 110zM99 555q0 -45 30 -77t74 -32t74 32t30 77t-30 77t-74 32q-45 0 -74.5 -32t-29.5 -77z" />
    <glyph glyph-name="guillemotright" unicode="&#xbb;" horiz-adv-x="535" 
d="M40 420h71l144 -168v-34l-144 -168h-71l158 185zM240 420h71l144 -168v-34l-144 -168h-71l158 185z" />
    <glyph glyph-name="onequarter" unicode="&#xbc;" horiz-adv-x="555" 
d="M265 85v24l193 251h27v-231h60v-44h-60v-85h-47v85h-173zM337 129h101v131zM92 0h-52l408 700h52zM103 639l-73 -37v48l93 50h27v-360h-47v299z" />
    <glyph glyph-name="onehalf" unicode="&#xbd;" horiz-adv-x="593" 
d="M92 0h-52l408 700h52zM103 639l-73 -37v48l93 50h27v-360h-47v299zM385 273l-41 17q26 80 107 80q45 0 76.5 -31t31.5 -75q0 -49 -53 -112l-88 -108h145v-44h-223v24l125 152q19 22 26.5 32t14 25.5t6.5 30.5q0 25 -17.5 43.5t-43.5 18.5q-46 0 -66 -53z" />
    <glyph glyph-name="threequarters" unicode="&#xbe;" horiz-adv-x="603" 
d="M313 85v24l193 251h27v-231h60v-44h-60v-85h-47v85h-173zM385 129h101v131zM140 0h-52l408 700h52zM233 676l-79 -100q36 -9 61 -34q37 -37 37 -88t-36 -87.5t-91 -36.5q-36 0 -67 17t-48 44l38 27q11 -20 32.5 -32t44.5 -12q34 0 57 23t23 57q0 37 -25 59.5t-61 22.5
q-24 0 -40 -7v24l80 103h-132v44h206v-24z" />
    <glyph glyph-name="questiondown" unicode="&#xbf;" horiz-adv-x="500" 
d="M376 -99l54 -16q-15 -59 -69 -97t-126 -38q-85 0 -142.5 52.5t-57.5 127.5q0 95 98 166q13 10 46 30.5t45.5 33t12.5 27.5q0 21 -34 53l42 40q27 -27 38 -47t11 -46q0 -24 -13.5 -44.5t-29 -32t-45 -30.5t-43.5 -29q-71 -54 -71 -121q0 -53 40.5 -89.5t102.5 -36.5
q53 0 92 27t49 70zM292 414q0 -22 -15 -37t-37 -15t-37 15t-15 37t15 37t37 15t37 -15t15 -37z" />
    <glyph glyph-name="Agrave" unicode="&#xc0;" horiz-adv-x="654" 
d="M207 880h75l65 -140h-45zM307 700h40l302 -700h-60l-92 211h-340l-92 -211h-60zM327 606l-146 -338h291z" />
    <glyph glyph-name="Aacute" unicode="&#xc1;" horiz-adv-x="654" 
d="M372 880h75l-95 -140h-45zM307 700h40l302 -700h-60l-92 211h-340l-92 -211h-60zM327 606l-146 -338h291z" />
    <glyph glyph-name="Acircumflex" unicode="&#xc2;" horiz-adv-x="654" 
d="M327 834l-85 -94h-45l95 140h70l95 -140h-45zM307 700h40l302 -700h-60l-92 211h-340l-92 -211h-60zM327 606l-146 -338h291z" />
    <glyph glyph-name="Atilde" unicode="&#xc3;" horiz-adv-x="654" 
d="M227 766l-40 11q1 33 20.5 58t53.5 25q27 0 67 -22.5t57 -22.5q33 0 36 45l40 -11q-1 -33 -20.5 -58t-53.5 -25q-27 0 -67 22.5t-57 22.5q-33 0 -36 -45zM307 700h40l302 -700h-60l-92 211h-340l-92 -211h-60zM327 606l-146 -338h291z" />
    <glyph glyph-name="Adieresis" unicode="&#xc4;" horiz-adv-x="654" 
d="M358 804q0 21 14.5 36t35.5 15t36 -15t15 -36t-15 -35.5t-36 -14.5t-35.5 14.5t-14.5 35.5zM195 804q0 21 14.5 36t35.5 15t36 -15t15 -36t-15 -35.5t-36 -14.5t-35.5 14.5t-14.5 35.5zM307 700h40l302 -700h-60l-92 211h-340l-92 -211h-60zM327 606l-146 -338h291z" />
    <glyph glyph-name="Aring" unicode="&#xc5;" horiz-adv-x="654" 
d="M237 820q0 38 26.5 64t63.5 26t63.5 -26t26.5 -64t-26.5 -64t-63.5 -26t-63.5 26t-26.5 64zM277 820q0 -21 14.5 -35.5t35.5 -14.5t35.5 14.5t14.5 35.5t-14.5 35.5t-35.5 14.5t-35.5 -14.5t-14.5 -35.5zM307 700h40l302 -700h-60l-92 211h-340l-92 -211h-60zM327 606
l-146 -338h291z" />
    <glyph glyph-name="AE" unicode="&#xc6;" horiz-adv-x="870" 
d="M820 643h-320v-228h250v-57h-250v-301h330v-57h-390v211h-267l-127 -211h-66l418 700h422v-57zM207 268h233v392z" />
    <glyph glyph-name="Ccedilla" unicode="&#xc7;" horiz-adv-x="685" 
d="M305 -140l48 132q-141 14 -229.5 114t-88.5 244q0 152 100 256t251 104q75 0 141.5 -28.5t112.5 -78.5l-41 -41q-83 91 -213 91q-125 0 -208 -88t-83 -215q0 -129 84 -216t213 -87q70 0 131 30t99 80l43 -38q-45 -58 -115.5 -93t-148.5 -36l-21 -130h-75z" />
    <glyph glyph-name="Egrave" unicode="&#xc8;" horiz-adv-x="520" 
d="M470 643h-320v-228h250v-57h-250v-301h330v-57h-390v700h380v-57zM167 880h75l65 -140h-45z" />
    <glyph glyph-name="Eacute" unicode="&#xc9;" horiz-adv-x="520" 
d="M470 643h-320v-228h250v-57h-250v-301h330v-57h-390v700h380v-57zM319 880h75l-95 -140h-45z" />
    <glyph glyph-name="Ecircumflex" unicode="&#xca;" horiz-adv-x="520" 
d="M470 643h-320v-228h250v-57h-250v-301h330v-57h-390v700h380v-57zM285 834l-85 -94h-45l95 140h70l95 -140h-45z" />
    <glyph glyph-name="Edieresis" unicode="&#xcb;" horiz-adv-x="520" 
d="M470 643h-320v-228h250v-57h-250v-301h330v-57h-390v700h380v-57zM316 804q0 21 14.5 36t35.5 15t36 -15t15 -36t-15 -35.5t-36 -14.5t-35.5 14.5t-14.5 35.5zM153 804q0 21 14.5 36t35.5 15t36 -15t15 -36t-15 -35.5t-36 -14.5t-35.5 14.5t-14.5 35.5z" />
    <glyph glyph-name="Igrave" unicode="&#xcc;" horiz-adv-x="240" 
d="M90 0v700h60v-700h-60zM0 880h75l65 -140h-45z" />
    <glyph glyph-name="Iacute" unicode="&#xcd;" horiz-adv-x="240" 
d="M90 0v700h60v-700h-60zM165 880h75l-95 -140h-45z" />
    <glyph glyph-name="Icircumflex" unicode="&#xce;" horiz-adv-x="240" 
d="M90 0v700h60v-700h-60zM120 834l-85 -94h-45l95 140h70l95 -140h-45z" />
    <glyph glyph-name="Idieresis" unicode="&#xcf;" horiz-adv-x="240" 
d="M90 0v700h60v-700h-60zM151 804q0 21 14.5 36t35.5 15t36 -15t15 -36t-15 -35.5t-36 -14.5t-35.5 14.5t-14.5 35.5zM-12 804q0 21 14.5 36t35.5 15t36 -15t15 -36t-15 -35.5t-36 -14.5t-35.5 14.5t-14.5 35.5z" />
    <glyph glyph-name="Eth" unicode="&#xd0;" horiz-adv-x="705" 
d="M-10 358v57h100v285h200q151 0 241 -66q65 -48 102 -123t37 -161t-37 -161t-102 -123q-90 -66 -241 -66h-200v358h-100zM610 350q0 70 -29 131.5t-81 102.5q-76 59 -213 59h-137v-228h200v-57h-200v-301h137q137 0 213 59q52 41 81 102.5t29 131.5z" />
    <glyph glyph-name="Ntilde" unicode="&#xd1;" horiz-adv-x="750" 
d="M90 0v700h40l470 -583v583h60v-700h-40l-470 583v-583h-60zM277 766l-40 11q1 33 20.5 58t53.5 25q27 0 67 -22.5t57 -22.5q33 0 36 45l40 -11q-1 -33 -20.5 -58t-53.5 -25q-27 0 -67 22.5t-57 22.5q-33 0 -36 -45z" />
    <glyph glyph-name="Ograve" unicode="&#xd2;" horiz-adv-x="766" 
d="M35 350q0 153 100 256.5t248 103.5t248 -103.5t100 -256.5t-100 -256.5t-248 -103.5t-248 103.5t-100 256.5zM95 350q0 -127 81.5 -215t206.5 -88t206.5 88t81.5 215t-81.5 215t-206.5 88t-206.5 -88t-81.5 -215zM266 880h75l65 -140h-45z" />
    <glyph glyph-name="Oacute" unicode="&#xd3;" horiz-adv-x="766" 
d="M35 350q0 153 100 256.5t248 103.5t248 -103.5t100 -256.5t-100 -256.5t-248 -103.5t-248 103.5t-100 256.5zM95 350q0 -127 81.5 -215t206.5 -88t206.5 88t81.5 215t-81.5 215t-206.5 88t-206.5 -88t-81.5 -215zM428 880h76l-96 -140h-46z" />
    <glyph glyph-name="Ocircumflex" unicode="&#xd4;" horiz-adv-x="766" 
d="M35 350q0 153 100 256.5t248 103.5t248 -103.5t100 -256.5t-100 -256.5t-248 -103.5t-248 103.5t-100 256.5zM95 350q0 -127 81.5 -215t206.5 -88t206.5 88t81.5 215t-81.5 215t-206.5 88t-206.5 -88t-81.5 -215zM383 834l-85 -94h-45l95 140h70l95 -140h-45z" />
    <glyph glyph-name="Otilde" unicode="&#xd5;" horiz-adv-x="766" 
d="M35 350q0 153 100 256.5t248 103.5t248 -103.5t100 -256.5t-100 -256.5t-248 -103.5t-248 103.5t-100 256.5zM95 350q0 -127 81.5 -215t206.5 -88t206.5 88t81.5 215t-81.5 215t-206.5 88t-206.5 -88t-81.5 -215zM286 766l-40 11q1 33 20.5 58t53.5 25q27 0 67 -22.5
t57 -22.5q33 0 36 45l40 -11q-1 -33 -20.5 -58t-53.5 -25q-27 0 -67 22.5t-57 22.5q-33 0 -36 -45z" />
    <glyph glyph-name="Odieresis" unicode="&#xd6;" horiz-adv-x="766" 
d="M35 350q0 153 100 256.5t248 103.5t248 -103.5t100 -256.5t-100 -256.5t-248 -103.5t-248 103.5t-100 256.5zM95 350q0 -127 81.5 -215t206.5 -88t206.5 88t81.5 215t-81.5 215t-206.5 88t-206.5 -88t-81.5 -215zM414 804q0 21 14.5 36t35.5 15t36 -15t15 -36t-15 -35.5
t-36 -14.5t-35.5 14.5t-14.5 35.5zM251 804q0 21 14.5 36t35.5 15t36 -15t15 -36t-15 -35.5t-36 -14.5t-35.5 14.5t-14.5 35.5z" />
    <glyph glyph-name="multiply" unicode="&#xd7;" horiz-adv-x="528" 
d="M415 67l-151 151l-151 -151l-38 38l151 151l-151 151l38 38l151 -151l151 151l38 -38l-151 -151l151 -151z" />
    <glyph glyph-name="Oslash" unicode="&#xd8;" horiz-adv-x="766" 
d="M35 350q0 153 100 256.5t248 103.5q100 0 183 -51l36 51h66l-59 -83q57 -50 89.5 -122t32.5 -155q0 -153 -100 -256.5t-248 -103.5q-102 0 -184 51l-36 -51h-65l58 83q-57 49 -89 121t-32 156zM671 350q0 138 -96 228l-343 -489q67 -42 151 -42q125 0 206.5 88t81.5 215z
M95 350q0 -139 95 -228l343 489q-67 42 -150 42q-125 0 -206.5 -88t-81.5 -215z" />
    <glyph glyph-name="Ugrave" unicode="&#xd9;" horiz-adv-x="720" 
d="M360 -10q-75 0 -138.5 34t-100.5 93q-41 65 -41 163v420h60v-423q0 -80 31 -130q30 -46 80 -73t109 -27t109 27t80 73q31 50 31 130v423h60v-420q0 -98 -41 -163q-37 -59 -100.5 -93t-138.5 -34zM242 880h75l65 -140h-45z" />
    <glyph glyph-name="Uacute" unicode="&#xda;" horiz-adv-x="720" 
d="M360 -10q-75 0 -138.5 34t-100.5 93q-41 65 -41 163v420h60v-423q0 -80 31 -130q30 -46 80 -73t109 -27t109 27t80 73q31 50 31 130v423h60v-420q0 -98 -41 -163q-37 -59 -100.5 -93t-138.5 -34zM403 880h75l-95 -140h-45z" />
    <glyph glyph-name="Ucircumflex" unicode="&#xdb;" horiz-adv-x="720" 
d="M360 -10q-75 0 -138.5 34t-100.5 93q-41 65 -41 163v420h60v-423q0 -80 31 -130q30 -46 80 -73t109 -27t109 27t80 73q31 50 31 130v423h60v-420q0 -98 -41 -163q-37 -59 -100.5 -93t-138.5 -34zM360 834l-85 -94h-45l95 140h70l95 -140h-45z" />
    <glyph glyph-name="Udieresis" unicode="&#xdc;" horiz-adv-x="720" 
d="M360 -10q-75 0 -138.5 34t-100.5 93q-41 65 -41 163v420h60v-423q0 -80 31 -130q30 -46 80 -73t109 -27t109 27t80 73q31 50 31 130v423h60v-420q0 -98 -41 -163q-37 -59 -100.5 -93t-138.5 -34zM391 804q0 21 14.5 36t35.5 15t36 -15t15 -36t-15 -35.5t-36 -14.5
t-35.5 14.5t-14.5 35.5zM228 804q0 21 14.5 36t35.5 15t36 -15t15 -36t-15 -35.5t-36 -14.5t-35.5 14.5t-14.5 35.5z" />
    <glyph glyph-name="Yacute" unicode="&#xdd;" horiz-adv-x="560" 
d="M550 700l-240 -371v-329h-60v329l-240 371h68l202 -313l202 313h68zM324 880h75l-95 -140h-45z" />
    <glyph glyph-name="Thorn" unicode="&#xde;" horiz-adv-x="580" 
d="M90 700h60v-169h199q87 0 137 -42q64 -54 64 -139t-64 -139q-50 -42 -137 -42h-199v-169h-60v700zM150 226h196q71 0 108 37q36 36 36 87t-36 87q-37 37 -108 37h-196v-248z" />
    <glyph glyph-name="germandbls" unicode="&#xdf;" 
d="M196 21l30 45q38 -22 83 -22q68 0 113.5 46t45.5 112q0 81 -63 128q-42 31 -116 31h-39v54h22q60 0 95.5 35.5t35.5 89.5t-35.5 90t-95.5 36q-65 0 -101 -42q-29 -34 -29 -114v-510h-57v510q0 104 47 154q53 56 140 56q84 0 136 -52t52 -128q0 -89 -65 -140
q59 -24 94.5 -77.5t35.5 -120.5q0 -89 -61 -150.5t-152 -61.5q-72 0 -116 31z" />
    <glyph glyph-name="agrave" unicode="&#xe0;" horiz-adv-x="582" 
d="M204 670h75l65 -140h-45zM497 0h-55v67q-57 -77 -164 -77q-76 0 -136 43q-45 32 -71 83t-26 112q0 115 85 187q63 51 145 51q102 0 167 -73v63h55v-456zM440 144v176q-19 33 -63.5 62.5t-100.5 29.5q-62 0 -110 -39q-64 -53 -64 -145q0 -47 19.5 -87t52.5 -63
q49 -34 103 -34q50 0 93 26.5t70 73.5z" />
    <glyph glyph-name="aacute" unicode="&#xe1;" horiz-adv-x="582" 
d="M335 670h75l-95 -140h-45zM497 0h-55v67q-57 -77 -164 -77q-76 0 -136 43q-45 32 -71 83t-26 112q0 115 85 187q63 51 145 51q102 0 167 -73v63h55v-456zM440 144v176q-19 33 -63.5 62.5t-100.5 29.5q-62 0 -110 -39q-64 -53 -64 -145q0 -47 19.5 -87t52.5 -63
q49 -34 103 -34q50 0 93 26.5t70 73.5z" />
    <glyph glyph-name="acircumflex" unicode="&#xe2;" horiz-adv-x="582" 
d="M295 624l-85 -94h-45l95 140h70l95 -140h-45zM497 0h-55v67q-57 -77 -164 -77q-76 0 -136 43q-45 32 -71 83t-26 112q0 115 85 187q63 51 145 51q102 0 167 -73v63h55v-456zM440 144v176q-19 33 -63.5 62.5t-100.5 29.5q-62 0 -110 -39q-64 -53 -64 -145q0 -47 19.5 -87
t52.5 -63q49 -34 103 -34q50 0 93 26.5t70 73.5z" />
    <glyph glyph-name="atilde" unicode="&#xe3;" horiz-adv-x="582" 
d="M190 556l-40 11q1 33 20.5 58t53.5 25q27 0 67 -22.5t57 -22.5q33 0 36 45l40 -11q-1 -33 -20.5 -58t-53.5 -25q-27 0 -67 22.5t-57 22.5q-33 0 -36 -45zM497 0h-55v67q-57 -77 -164 -77q-76 0 -136 43q-45 32 -71 83t-26 112q0 115 85 187q63 51 145 51q102 0 167 -73
v63h55v-456zM440 144v176q-19 33 -63.5 62.5t-100.5 29.5q-62 0 -110 -39q-64 -53 -64 -145q0 -47 19.5 -87t52.5 -63q49 -34 103 -34q50 0 93 26.5t70 73.5z" />
    <glyph glyph-name="adieresis" unicode="&#xe4;" horiz-adv-x="582" 
d="M323 594q0 21 14.5 36t35.5 15t36 -15t15 -36t-15 -35.5t-36 -14.5t-35.5 14.5t-14.5 35.5zM160 594q0 21 14.5 36t35.5 15t36 -15t15 -36t-15 -35.5t-36 -14.5t-35.5 14.5t-14.5 35.5zM497 0h-55v67q-57 -77 -164 -77q-76 0 -136 43q-45 32 -71 83t-26 112q0 115 85 187
q63 51 145 51q102 0 167 -73v63h55v-456zM440 144v176q-19 33 -63.5 62.5t-100.5 29.5q-62 0 -110 -39q-64 -53 -64 -145q0 -47 19.5 -87t52.5 -63q49 -34 103 -34q50 0 93 26.5t70 73.5z" />
    <glyph glyph-name="aring" unicode="&#xe5;" horiz-adv-x="582" 
d="M202 610q0 38 26 64t64 26t64 -26t26 -64t-26 -64t-64 -26t-64 26t-26 64zM242 610q0 -21 14.5 -35.5t35.5 -14.5t35.5 14.5t14.5 35.5t-14.5 35.5t-35.5 14.5t-35.5 -14.5t-14.5 -35.5zM497 0h-55v67q-57 -77 -164 -77q-76 0 -136 43q-45 32 -71 83t-26 112
q0 115 85 187q63 51 145 51q102 0 167 -73v63h55v-456zM440 144v176q-19 33 -63.5 62.5t-100.5 29.5q-62 0 -110 -39q-64 -53 -64 -145q0 -47 19.5 -87t52.5 -63q49 -34 103 -34q50 0 93 26.5t70 73.5z" />
    <glyph glyph-name="ae" unicode="&#xe6;" horiz-adv-x="915" 
d="M495 0h-53v67q-57 -77 -164 -77q-76 0 -136 43q-45 32 -71 83t-26 112q0 115 85 187q63 51 145 51q102 0 167 -73v63h53v-70q60 80 163 80q91 0 151.5 -64t60.5 -159q0 -11 -1 -20h-372q3 -76 49.5 -127.5t122.5 -51.5q90 0 146 68l40 -38q-28 -36 -76.5 -60t-109.5 -24
q-109 0 -174 84v-74zM440 144v176q-19 33 -63.5 62.5t-100.5 29.5q-62 0 -110 -39q-64 -53 -64 -145q0 -47 19.5 -87t52.5 -63q49 -34 103 -34q50 0 93 26.5t70 73.5zM658 412q-60 0 -102.5 -38t-55.5 -99h311q-9 60 -51.5 98.5t-101.5 38.5z" />
    <glyph glyph-name="ccedilla" unicode="&#xe7;" horiz-adv-x="500" 
d="M429 107l41 -38q-61 -70 -161 -78l-21 -131h-75l48 132q-91 9 -153.5 73.5t-62.5 162.5t67.5 168t168.5 70q103 0 174 -71l-36 -41q-60 58 -138 58q-73 0 -126 -53.5t-53 -130.5t53.5 -130.5t133.5 -53.5t140 63z" />
    <glyph glyph-name="egrave" unicode="&#xe8;" horiz-adv-x="520" 
d="M169 670h75l65 -140h-45zM263 412q-60 0 -102.5 -38t-55.5 -99h311q-9 60 -51.5 98.5t-101.5 38.5zM420 112l40 -38q-28 -36 -76.5 -60t-109.5 -24q-98 0 -163.5 66.5t-65.5 171.5q0 100 61.5 169t156.5 69q91 0 151.5 -64t60.5 -159q0 -11 -1 -20h-372
q3 -76 49.5 -127.5t122.5 -51.5q90 0 146 68z" />
    <glyph glyph-name="eacute" unicode="&#xe9;" horiz-adv-x="520" 
d="M304 670h75l-95 -140h-45zM263 412q-60 0 -102.5 -38t-55.5 -99h311q-9 60 -51.5 98.5t-101.5 38.5zM420 112l40 -38q-28 -36 -76.5 -60t-109.5 -24q-98 0 -163.5 66.5t-65.5 171.5q0 100 61.5 169t156.5 69q91 0 151.5 -64t60.5 -159q0 -11 -1 -20h-372
q3 -76 49.5 -127.5t122.5 -51.5q90 0 146 68z" />
    <glyph glyph-name="ecircumflex" unicode="&#xea;" horiz-adv-x="520" 
d="M274 624l-85 -94h-45l95 140h70l95 -140h-45zM263 412q-60 0 -102.5 -38t-55.5 -99h311q-9 60 -51.5 98.5t-101.5 38.5zM420 112l40 -38q-28 -36 -76.5 -60t-109.5 -24q-98 0 -163.5 66.5t-65.5 171.5q0 100 61.5 169t156.5 69q91 0 151.5 -64t60.5 -159q0 -11 -1 -20
h-372q3 -76 49.5 -127.5t122.5 -51.5q90 0 146 68z" />
    <glyph glyph-name="edieresis" unicode="&#xeb;" horiz-adv-x="520" 
d="M305 594q0 21 14.5 36t35.5 15t36 -15t15 -36t-15 -35.5t-36 -14.5t-35.5 14.5t-14.5 35.5zM142 594q0 21 14.5 36t35.5 15t36 -15t15 -36t-15 -35.5t-36 -14.5t-35.5 14.5t-14.5 35.5zM263 412q-60 0 -102.5 -38t-55.5 -99h311q-9 60 -51.5 98.5t-101.5 38.5zM420 112
l40 -38q-28 -36 -76.5 -60t-109.5 -24q-98 0 -163.5 66.5t-65.5 171.5q0 100 61.5 169t156.5 69q91 0 151.5 -64t60.5 -159q0 -11 -1 -20h-372q3 -76 49.5 -127.5t122.5 -51.5q90 0 146 68z" />
    <glyph glyph-name="igrave" unicode="&#xec;" horiz-adv-x="227" 
d="M85 0v456h57v-456h-57zM-9 670h75l65 -140h-45z" />
    <glyph glyph-name="iacute" unicode="&#xed;" horiz-adv-x="227" 
d="M85 0v456h57v-456h-57zM161 670h75l-95 -140h-45z" />
    <glyph glyph-name="icircumflex" unicode="&#xee;" horiz-adv-x="227" 
d="M85 0v456h57v-456h-57zM113 624l-85 -94h-45l95 140h70l95 -140h-45z" />
    <glyph glyph-name="idieresis" unicode="&#xef;" horiz-adv-x="227" 
d="M85 0v456h57v-456h-57zM144 594q0 21 14.5 36t35.5 15t36 -15t15 -36t-15 -35.5t-36 -14.5t-35.5 14.5t-14.5 35.5zM-19 594q0 21 14.5 36t35.5 15t36 -15t15 -36t-15 -35.5t-36 -14.5t-35.5 14.5t-14.5 35.5z" />
    <glyph glyph-name="eth" unicode="&#xf0;" horiz-adv-x="560" 
d="M245 614l-63 96h66l45 -68l118 68l27 -45l-116 -67l131 -196q62 -95 62 -175q0 -98 -67 -167.5t-168 -69.5t-168 69t-67 169q0 101 67.5 169.5t171.5 68.5q31 0 66 -10l-76 114l-120 -70l-28 46zM406 369q-52 43 -122 43q-80 0 -131 -52.5t-51 -131.5q0 -77 50.5 -130.5
t127.5 -53.5t127.5 53.5t50.5 130.5q0 81 -52 141z" />
    <glyph glyph-name="ntilde" unicode="&#xf1;" horiz-adv-x="577" 
d="M199 556l-40 11q1 33 20.5 58t53.5 25q27 0 67 -22.5t57 -22.5q33 0 36 45l40 -11q-1 -33 -20.5 -58t-53.5 -25q-27 0 -67 22.5t-57 22.5q-33 0 -36 -45zM140 456v-64q56 74 161 74t162 -77q39 -51 39 -146v-243h-57v239q0 75 -26 112q-42 61 -119 61q-49 0 -90.5 -25
t-67.5 -70v-317h-57v456h55z" />
    <glyph glyph-name="ograve" unicode="&#xf2;" horiz-adv-x="560" 
d="M458 228q0 77 -50.5 130.5t-127.5 53.5t-127.5 -53.5t-50.5 -130.5t50.5 -130.5t127.5 -53.5t127.5 53.5t50.5 130.5zM515 228q0 -99 -67 -168.5t-168 -69.5t-168 69.5t-67 168.5t67 168.5t168 69.5t168 -69.5t67 -168.5zM162 670h75l65 -140h-45z" />
    <glyph glyph-name="oacute" unicode="&#xf3;" horiz-adv-x="560" 
d="M458 228q0 77 -50.5 130.5t-127.5 53.5t-127.5 -53.5t-50.5 -130.5t50.5 -130.5t127.5 -53.5t127.5 53.5t50.5 130.5zM515 228q0 -99 -67 -168.5t-168 -69.5t-168 69.5t-67 168.5t67 168.5t168 69.5t168 -69.5t67 -168.5zM326 670h75l-95 -140h-45z" />
    <glyph glyph-name="ocircumflex" unicode="&#xf4;" horiz-adv-x="560" 
d="M458 228q0 77 -50.5 130.5t-127.5 53.5t-127.5 -53.5t-50.5 -130.5t50.5 -130.5t127.5 -53.5t127.5 53.5t50.5 130.5zM515 228q0 -99 -67 -168.5t-168 -69.5t-168 69.5t-67 168.5t67 168.5t168 69.5t168 -69.5t67 -168.5zM280 624l-85 -94h-45l95 140h70l95 -140h-45z
" />
    <glyph glyph-name="otilde" unicode="&#xf5;" horiz-adv-x="560" 
d="M458 228q0 77 -50.5 130.5t-127.5 53.5t-127.5 -53.5t-50.5 -130.5t50.5 -130.5t127.5 -53.5t127.5 53.5t50.5 130.5zM515 228q0 -99 -67 -168.5t-168 -69.5t-168 69.5t-67 168.5t67 168.5t168 69.5t168 -69.5t67 -168.5zM183 556l-40 11q1 33 20.5 58t53.5 25
q27 0 67 -22.5t57 -22.5q33 0 36 45l40 -11q-1 -33 -20.5 -58t-53.5 -25q-27 0 -67 22.5t-57 22.5q-33 0 -36 -45z" />
    <glyph glyph-name="odieresis" unicode="&#xf6;" horiz-adv-x="560" 
d="M458 228q0 77 -50.5 130.5t-127.5 53.5t-127.5 -53.5t-50.5 -130.5t50.5 -130.5t127.5 -53.5t127.5 53.5t50.5 130.5zM515 228q0 -99 -67 -168.5t-168 -69.5t-168 69.5t-67 168.5t67 168.5t168 69.5t168 -69.5t67 -168.5zM311 594q0 21 14.5 36t35.5 15t36 -15t15 -36
t-15 -35.5t-36 -14.5t-35.5 14.5t-14.5 35.5zM148 594q0 21 14.5 36t35.5 15t36 -15t15 -36t-15 -35.5t-36 -14.5t-35.5 14.5t-14.5 35.5z" />
    <glyph glyph-name="divide" unicode="&#xf7;" horiz-adv-x="530" 
d="M475 229h-420v54h420v-54zM215 426q0 21 14.5 35.5t35.5 14.5t35.5 -14.5t14.5 -35.5t-14.5 -35.5t-35.5 -14.5t-35.5 14.5t-14.5 35.5zM215 86q0 21 14.5 35.5t35.5 14.5t35.5 -14.5t14.5 -35.5t-14.5 -35.5t-35.5 -14.5t-35.5 14.5t-14.5 35.5z" />
    <glyph glyph-name="oslash" unicode="&#xf8;" horiz-adv-x="560" 
d="M515 228q0 -99 -67 -168.5t-168 -69.5q-61 0 -116 29l-20 -29h-64l41 60q-76 68 -76 178q0 99 67 168.5t168 69.5q63 0 115 -30l21 30h64l-42 -60q77 -71 77 -178zM102 228q0 -79 53 -134l207 298q-37 20 -82 20q-77 0 -127.5 -53.5t-50.5 -130.5zM458 228q0 81 -54 133
l-206 -298q38 -19 82 -19q77 0 127.5 53.5t50.5 130.5z" />
    <glyph glyph-name="ugrave" unicode="&#xf9;" horiz-adv-x="567" 
d="M169 670h75l65 -140h-45zM427 0v62q-25 -32 -66.5 -52t-87.5 -20q-56 0 -101 25t-70 69q-27 49 -27 129v243h57v-234q0 -79 26 -118q40 -60 115 -60q46 0 87.5 26t64.5 69v317h57v-456h-55z" />
    <glyph glyph-name="uacute" unicode="&#xfa;" horiz-adv-x="567" 
d="M322 670h75l-95 -140h-45zM427 0v62q-25 -32 -66.5 -52t-87.5 -20q-56 0 -101 25t-70 69q-27 49 -27 129v243h57v-234q0 -79 26 -118q40 -60 115 -60q46 0 87.5 26t64.5 69v317h57v-456h-55z" />
    <glyph glyph-name="ucircumflex" unicode="&#xfb;" horiz-adv-x="567" 
d="M281 624l-85 -94h-45l95 140h70l95 -140h-45zM427 0v62q-25 -32 -66.5 -52t-87.5 -20q-56 0 -101 25t-70 69q-27 49 -27 129v243h57v-234q0 -79 26 -118q40 -60 115 -60q46 0 87.5 26t64.5 69v317h57v-456h-55z" />
    <glyph glyph-name="udieresis" unicode="&#xfc;" horiz-adv-x="567" 
d="M313 594q0 21 14.5 36t35.5 15t36 -15t15 -36t-15 -35.5t-36 -14.5t-35.5 14.5t-14.5 35.5zM150 594q0 21 14.5 36t35.5 15t36 -15t15 -36t-15 -35.5t-36 -14.5t-35.5 14.5t-14.5 35.5zM427 0v62q-25 -32 -66.5 -52t-87.5 -20q-56 0 -101 25t-70 69q-27 49 -27 129v243
h57v-234q0 -79 26 -118q40 -60 115 -60q46 0 87.5 26t64.5 69v317h57v-456h-55z" />
    <glyph glyph-name="yacute" unicode="&#xfd;" horiz-adv-x="487" 
d="M282 670h75l-95 -140h-45zM156 -240h-60l125 277l-206 419h64l171 -354l161 354h61z" />
    <glyph glyph-name="thorn" unicode="&#xfe;" horiz-adv-x="582" 
d="M142 320v-176q27 -47 70 -73.5t93 -26.5q54 0 103 34q33 23 52.5 63t19.5 87q0 92 -64 145q-48 39 -110 39q-56 0 -100.5 -29.5t-63.5 -62.5zM85 -240v950h57v-315q66 71 165 71q82 0 145 -51q85 -72 85 -187q0 -61 -26 -112t-71 -83q-60 -43 -136 -43q-104 0 -162 75
v-305h-57z" />
    <glyph glyph-name="ydieresis" unicode="&#xff;" horiz-adv-x="487" 
d="M278 594q0 21 14.5 36t35.5 15t36 -15t15 -36t-15 -35.5t-36 -14.5t-35.5 14.5t-14.5 35.5zM115 594q0 21 14.5 36t35.5 15t36 -15t15 -36t-15 -35.5t-36 -14.5t-35.5 14.5t-14.5 35.5zM156 -240h-60l125 277l-206 419h64l171 -354l161 354h61z" />
    <glyph glyph-name="Amacron" unicode="&#x100;" horiz-adv-x="654" 
d="M187 836h280v-50h-280v50zM307 700h40l302 -700h-60l-92 211h-340l-92 -211h-60zM327 606l-146 -338h291z" />
    <glyph glyph-name="amacron" unicode="&#x101;" horiz-adv-x="582" 
d="M150 626h280v-50h-280v50zM497 0h-55v67q-57 -77 -164 -77q-76 0 -136 43q-45 32 -71 83t-26 112q0 115 85 187q63 51 145 51q102 0 167 -73v63h55v-456zM440 144v176q-19 33 -63.5 62.5t-100.5 29.5q-62 0 -110 -39q-64 -53 -64 -145q0 -47 19.5 -87t52.5 -63
q49 -34 103 -34q50 0 93 26.5t70 73.5z" />
    <glyph glyph-name="Abreve" unicode="&#x102;" horiz-adv-x="654" 
d="M402 890h50q0 -52 -36.5 -88.5t-88.5 -36.5t-88.5 36.5t-36.5 88.5h50q0 -31 22 -53t53 -22t53 22t22 53zM307 700h40l302 -700h-60l-92 211h-340l-92 -211h-60zM327 606l-146 -338h291z" />
    <glyph glyph-name="abreve" unicode="&#x103;" horiz-adv-x="582" 
d="M368 680h50q0 -52 -36.5 -88.5t-88.5 -36.5t-88.5 36.5t-36.5 88.5h50q0 -31 22 -53t53 -22t53 22t22 53zM497 0h-55v67q-57 -77 -164 -77q-76 0 -136 43q-45 32 -71 83t-26 112q0 115 85 187q63 51 145 51q102 0 167 -73v63h55v-456zM440 144v176q-19 33 -63.5 62.5
t-100.5 29.5q-62 0 -110 -39q-64 -53 -64 -145q0 -47 19.5 -87t52.5 -63q49 -34 103 -34q50 0 93 26.5t70 73.5z" />
    <glyph glyph-name="Aogonek" unicode="&#x104;" horiz-adv-x="654" 
d="M327 606l-146 -338h291zM590 -2l-93 213h-340l-92 -211h-60l302 700h40l302 -700q-32 -45 -32 -97q0 -38 19 -54t45 -16q17 0 40 5l10 -49q-21 -9 -55 -9q-53 0 -84 33.5t-31 84.5q0 56 29 100z" />
    <glyph glyph-name="aogonek" unicode="&#x105;" horiz-adv-x="582" 
d="M497 0q-32 -45 -32 -97q0 -38 19 -54t45 -16q17 0 40 5l10 -49q-21 -9 -55 -9q-53 0 -84 33.5t-31 84.5q0 58 33 106v63q-57 -77 -164 -77q-76 0 -136 43q-45 32 -71 83t-26 112q0 115 85 187q63 51 145 51q102 0 167 -73v63h55v-456zM440 144v176q-19 33 -63.5 62.5
t-100.5 29.5q-62 0 -110 -39q-64 -53 -64 -145q0 -47 19.5 -87t52.5 -63q49 -34 103 -34q50 0 93 26.5t70 73.5z" />
    <glyph glyph-name="Cacute" unicode="&#x106;" horiz-adv-x="685" 
d="M622 157l43 -38q-46 -59 -118 -94t-152 -35q-156 0 -258 102t-102 258q0 152 100 256t251 104q75 0 141.5 -28.5t112.5 -78.5l-41 -41q-83 91 -213 91q-125 0 -208 -88t-83 -215q0 -129 84 -216t213 -87q70 0 131 30t99 80zM426 880h75l-95 -140h-45z" />
    <glyph glyph-name="cacute" unicode="&#x107;" horiz-adv-x="500" 
d="M308 670h75l-95 -140h-45zM429 107l41 -38q-71 -79 -180 -79q-99 0 -172 66t-73 172q0 98 67.5 168t168.5 70q103 0 174 -71l-36 -41q-60 58 -138 58q-73 0 -126 -53.5t-53 -130.5t53.5 -130.5t133.5 -53.5t140 63z" />
    <glyph glyph-name="Ccircumflex" unicode="&#x108;" horiz-adv-x="685" 
d="M622 157l43 -38q-46 -59 -118 -94t-152 -35q-156 0 -258 102t-102 258q0 152 100 256t251 104q75 0 141.5 -28.5t112.5 -78.5l-41 -41q-83 91 -213 91q-125 0 -208 -88t-83 -215q0 -129 84 -216t213 -87q70 0 131 30t99 80zM386 834l-85 -94h-45l95 140h70l95 -140h-45z
" />
    <glyph glyph-name="ccircumflex" unicode="&#x109;" horiz-adv-x="500" 
d="M273 624l-85 -94h-45l95 140h70l95 -140h-45zM429 107l41 -38q-71 -79 -180 -79q-99 0 -172 66t-73 172q0 98 67.5 168t168.5 70q103 0 174 -71l-36 -41q-60 58 -138 58q-73 0 -126 -53.5t-53 -130.5t53.5 -130.5t133.5 -53.5t140 63z" />
    <glyph glyph-name="Cdotaccent" unicode="&#x10a;" horiz-adv-x="685" 
d="M622 157l43 -38q-46 -59 -118 -94t-152 -35q-156 0 -258 102t-102 258q0 152 100 256t251 104q75 0 141.5 -28.5t112.5 -78.5l-41 -41q-83 91 -213 91q-125 0 -208 -88t-83 -215q0 -129 84 -216t213 -87q70 0 131 30t99 80zM336 824q0 21 14.5 36t35.5 15t36 -15t15 -36
t-15 -35.5t-36 -14.5t-35.5 14.5t-14.5 35.5z" />
    <glyph glyph-name="cdotaccent" unicode="&#x10b;" horiz-adv-x="500" 
d="M218 614q0 21 14.5 36t35.5 15t36 -15t15 -36t-15 -35.5t-36 -14.5t-35.5 14.5t-14.5 35.5zM429 107l41 -38q-71 -79 -180 -79q-99 0 -172 66t-73 172q0 98 67.5 168t168.5 70q103 0 174 -71l-36 -41q-60 58 -138 58q-73 0 -126 -53.5t-53 -130.5t53.5 -130.5
t133.5 -53.5t140 63z" />
    <glyph glyph-name="Ccaron" unicode="&#x10c;" horiz-adv-x="685" 
d="M622 157l43 -38q-46 -59 -118 -94t-152 -35q-156 0 -258 102t-102 258q0 152 100 256t251 104q75 0 141.5 -28.5t112.5 -78.5l-41 -41q-83 91 -213 91q-125 0 -208 -88t-83 -215q0 -129 84 -216t213 -87q70 0 131 30t99 80zM301 890l85 -94l85 94h45l-95 -140h-70
l-95 140h45z" />
    <glyph glyph-name="ccaron" unicode="&#x10d;" horiz-adv-x="500" 
d="M183 680l85 -94l85 94h45l-95 -140h-70l-95 140h45zM429 107l41 -38q-71 -79 -180 -79q-99 0 -172 66t-73 172q0 98 67.5 168t168.5 70q103 0 174 -71l-36 -41q-60 58 -138 58q-73 0 -126 -53.5t-53 -130.5t53.5 -130.5t133.5 -53.5t140 63z" />
    <glyph glyph-name="Dcaron" unicode="&#x10e;" horiz-adv-x="705" 
d="M610 350q0 70 -29 131.5t-81 102.5q-76 59 -213 59h-137v-586h137q137 0 213 59q52 41 81 102.5t29 131.5zM670 350q0 -86 -37 -161t-102 -123q-90 -66 -241 -66h-200v700h200q151 0 241 -66q65 -48 102 -123t37 -161zM231 890l85 -94l85 94h45l-95 -140h-70l-95 140h45z
" />
    <glyph glyph-name="dcaron" unicode="&#x10f;" horiz-adv-x="627" 
d="M602 700h75l-95 -140h-45zM440 144v176q-19 33 -63.5 62.5t-100.5 29.5q-62 0 -110 -39q-64 -53 -64 -145q0 -47 19.5 -87t52.5 -63q49 -34 103 -34q50 0 93 26.5t70 73.5zM278 -10q-76 0 -136 43q-45 32 -71 83t-26 112q0 115 85 187q63 51 145 51q99 0 165 -71v315h57
v-710h-55v67q-57 -77 -164 -77z" />
    <glyph glyph-name="Dcroat" unicode="&#x110;" horiz-adv-x="705" 
d="M-10 358v57h100v285h200q151 0 241 -66q65 -48 102 -123t37 -161t-37 -161t-102 -123q-90 -66 -241 -66h-200v358h-100zM610 350q0 70 -29 131.5t-81 102.5q-76 59 -213 59h-137v-228h200v-57h-200v-301h137q137 0 213 59q52 41 81 102.5t29 131.5z" />
    <glyph glyph-name="dcroat" unicode="&#x111;" horiz-adv-x="587" 
d="M278 -10q-76 0 -136 43q-45 32 -71 83t-26 112q0 115 85 187q63 51 145 51q99 0 165 -71v156h-130v54h130v105h57v-105h85v-54h-85v-551h-55v67q-57 -77 -164 -77zM440 144v176q-19 33 -63.5 62.5t-100.5 29.5q-62 0 -110 -39q-64 -53 -64 -145q0 -47 19.5 -87t52.5 -63
q49 -34 103 -34q50 0 93 26.5t70 73.5z" />
    <glyph glyph-name="Emacron" unicode="&#x112;" horiz-adv-x="520" 
d="M470 643h-320v-228h250v-57h-250v-301h330v-57h-390v700h380v-57zM140 836h280v-50h-280v50z" />
    <glyph glyph-name="emacron" unicode="&#x113;" horiz-adv-x="520" 
d="M133 626h280v-50h-280v50zM263 412q-60 0 -102.5 -38t-55.5 -99h311q-9 60 -51.5 98.5t-101.5 38.5zM420 112l40 -38q-28 -36 -76.5 -60t-109.5 -24q-98 0 -163.5 66.5t-65.5 171.5q0 100 61.5 169t156.5 69q91 0 151.5 -64t60.5 -159q0 -11 -1 -20h-372
q3 -76 49.5 -127.5t122.5 -51.5q90 0 146 68z" />
    <glyph glyph-name="Ebreve" unicode="&#x114;" horiz-adv-x="520" 
d="M355 890h50q0 -52 -36.5 -88.5t-88.5 -36.5t-88.5 36.5t-36.5 88.5h50q0 -31 22 -53t53 -22t53 22t22 53zM470 643h-320v-228h250v-57h-250v-301h330v-57h-390v700h380v-57z" />
    <glyph glyph-name="ebreve" unicode="&#x115;" horiz-adv-x="520" 
d="M348 680h50q0 -52 -36.5 -88.5t-88.5 -36.5t-88.5 36.5t-36.5 88.5h50q0 -31 22 -53t53 -22t53 22t22 53zM263 412q-60 0 -102.5 -38t-55.5 -99h311q-9 60 -51.5 98.5t-101.5 38.5zM420 112l40 -38q-28 -36 -76.5 -60t-109.5 -24q-98 0 -163.5 66.5t-65.5 171.5
q0 100 61.5 169t156.5 69q91 0 151.5 -64t60.5 -159q0 -11 -1 -20h-372q3 -76 49.5 -127.5t122.5 -51.5q90 0 146 68z" />
    <glyph glyph-name="Edotaccent" unicode="&#x116;" horiz-adv-x="520" 
d="M470 643h-320v-228h250v-57h-250v-301h330v-57h-390v700h380v-57zM230 824q0 21 14.5 36t35.5 15t36 -15t15 -36t-15 -35.5t-36 -14.5t-35.5 14.5t-14.5 35.5z" />
    <glyph glyph-name="edotaccent" unicode="&#x117;" horiz-adv-x="520" 
d="M223 614q0 21 14.5 36t35.5 15t36 -15t15 -36t-15 -35.5t-36 -14.5t-35.5 14.5t-14.5 35.5zM263 412q-60 0 -102.5 -38t-55.5 -99h311q-9 60 -51.5 98.5t-101.5 38.5zM420 112l40 -38q-28 -36 -76.5 -60t-109.5 -24q-98 0 -163.5 66.5t-65.5 171.5q0 100 61.5 169
t156.5 69q91 0 151.5 -64t60.5 -159q0 -11 -1 -20h-372q3 -76 49.5 -127.5t122.5 -51.5q90 0 146 68z" />
    <glyph glyph-name="Eogonek" unicode="&#x118;" horiz-adv-x="520" 
d="M470 643h-320v-228h250v-57h-250v-301h330v-57h-107q-32 -45 -32 -97q0 -38 19 -54t45 -16q17 0 40 5l10 -49q-21 -9 -55 -9q-53 0 -84 33.5t-31 84.5q0 56 30 102h-225v700h380v-57z" />
    <glyph glyph-name="eogonek" unicode="&#x119;" horiz-adv-x="520" 
d="M420 112l40 -38q-39 -49 -101 -70q-34 -43 -34 -101q0 -38 19 -54t45 -16q17 0 40 5l10 -49q-21 -9 -55 -9q-53 0 -84 33.5t-31 84.5q0 53 23 93q-6 -1 -18 -1q-98 0 -163.5 66.5t-65.5 171.5q0 100 61.5 169t156.5 69q91 0 151.5 -64t60.5 -159q0 -11 -1 -20h-372
q3 -76 49.5 -127.5t122.5 -51.5q90 0 146 68zM263 412q-60 0 -102.5 -38t-55.5 -99h311q-9 60 -51.5 98.5t-101.5 38.5z" />
    <glyph glyph-name="Ecaron" unicode="&#x11a;" horiz-adv-x="520" 
d="M470 643h-320v-228h250v-57h-250v-301h330v-57h-390v700h380v-57zM195 890l85 -94l85 94h45l-95 -140h-70l-95 140h45z" />
    <glyph glyph-name="ecaron" unicode="&#x11b;" horiz-adv-x="520" 
d="M188 680l85 -94l85 94h45l-95 -140h-70l-95 140h45zM263 412q-60 0 -102.5 -38t-55.5 -99h311q-9 60 -51.5 98.5t-101.5 38.5zM420 112l40 -38q-28 -36 -76.5 -60t-109.5 -24q-98 0 -163.5 66.5t-65.5 171.5q0 100 61.5 169t156.5 69q91 0 151.5 -64t60.5 -159
q0 -11 -1 -20h-372q3 -76 49.5 -127.5t122.5 -51.5q90 0 146 68z" />
    <glyph glyph-name="Gcircumflex" unicode="&#x11c;" horiz-adv-x="730" 
d="M605 135v223h-230v57h290v-295q-46 -59 -118 -94.5t-152 -35.5q-156 0 -258 102t-102 258q0 152 100 256t251 104q75 0 141.5 -28.5t112.5 -78.5l-41 -41q-83 91 -213 91q-125 0 -208 -88t-83 -215q0 -129 84 -216t213 -87q128 0 213 88zM386 834l-85 -94h-45l95 140h70
l95 -140h-45z" />
    <glyph glyph-name="gcircumflex" unicode="&#x11d;" horiz-adv-x="582" 
d="M295 624l-85 -94h-45l95 140h70l95 -140h-45zM497 2q0 -100 -25 -147q-56 -105 -198 -105q-134 0 -207 109l45 33q55 -88 163 -88q107 0 147 78q18 36 18 118v65q-58 -75 -162 -75q-76 0 -136 43q-45 32 -71 83t-26 112q0 115 85 187q63 51 145 51q102 0 167 -73v63h55
v-454zM440 144v176q-19 33 -63.5 62.5t-100.5 29.5q-62 0 -110 -39q-64 -53 -64 -145q0 -47 19.5 -87t52.5 -63q49 -34 103 -34q50 0 93 26.5t70 73.5z" />
    <glyph glyph-name="Gbreve" unicode="&#x11e;" horiz-adv-x="730" 
d="M461 890h50q0 -52 -36.5 -88.5t-88.5 -36.5t-88.5 36.5t-36.5 88.5h50q0 -31 22 -53t53 -22t53 22t22 53zM605 135v223h-230v57h290v-295q-46 -59 -118 -94.5t-152 -35.5q-156 0 -258 102t-102 258q0 152 100 256t251 104q75 0 141.5 -28.5t112.5 -78.5l-41 -41
q-83 91 -213 91q-125 0 -208 -88t-83 -215q0 -129 84 -216t213 -87q128 0 213 88z" />
    <glyph glyph-name="gbreve" unicode="&#x11f;" horiz-adv-x="582" 
d="M368 680h50q0 -52 -36.5 -88.5t-88.5 -36.5t-88.5 36.5t-36.5 88.5h50q0 -31 22 -53t53 -22t53 22t22 53zM497 2q0 -100 -25 -147q-56 -105 -198 -105q-134 0 -207 109l45 33q55 -88 163 -88q107 0 147 78q18 36 18 118v65q-58 -75 -162 -75q-76 0 -136 43q-45 32 -71 83
t-26 112q0 115 85 187q63 51 145 51q102 0 167 -73v63h55v-454zM440 144v176q-19 33 -63.5 62.5t-100.5 29.5q-62 0 -110 -39q-64 -53 -64 -145q0 -47 19.5 -87t52.5 -63q49 -34 103 -34q50 0 93 26.5t70 73.5z" />
    <glyph glyph-name="Gdotaccent" unicode="&#x120;" horiz-adv-x="730" 
d="M605 135v223h-230v57h290v-295q-46 -59 -118 -94.5t-152 -35.5q-156 0 -258 102t-102 258q0 152 100 256t251 104q75 0 141.5 -28.5t112.5 -78.5l-41 -41q-83 91 -213 91q-125 0 -208 -88t-83 -215q0 -129 84 -216t213 -87q128 0 213 88zM336 824q0 21 14.5 36t35.5 15
t36 -15t15 -36t-15 -35.5t-36 -14.5t-35.5 14.5t-14.5 35.5z" />
    <glyph glyph-name="gdotaccent" unicode="&#x121;" horiz-adv-x="582" 
d="M253 614q0 21 14.5 36t35.5 15t36 -15t15 -36t-15 -35.5t-36 -14.5t-35.5 14.5t-14.5 35.5zM497 2q0 -100 -25 -147q-56 -105 -198 -105q-134 0 -207 109l45 33q55 -88 163 -88q107 0 147 78q18 36 18 118v65q-58 -75 -162 -75q-76 0 -136 43q-45 32 -71 83t-26 112
q0 115 85 187q63 51 145 51q102 0 167 -73v63h55v-454zM440 144v176q-19 33 -63.5 62.5t-100.5 29.5q-62 0 -110 -39q-64 -53 -64 -145q0 -47 19.5 -87t52.5 -63q49 -34 103 -34q50 0 93 26.5t70 73.5z" />
    <glyph glyph-name="Gcommaaccent" unicode="&#x122;" horiz-adv-x="730" 
d="M605 135v223h-230v57h290v-295q-46 -59 -118 -94.5t-152 -35.5q-156 0 -258 102t-102 258q0 152 100 256t251 104q75 0 141.5 -28.5t112.5 -78.5l-41 -41q-83 91 -213 91q-125 0 -208 -88t-83 -215q0 -129 84 -216t213 -87q128 0 213 88zM360 -40h75l-95 -140h-45z" />
    <glyph glyph-name="gcommaaccent" unicode="&#x123;" horiz-adv-x="582" 
d="M331 531h-75l95 140h45zM497 2q0 -100 -25 -147q-56 -105 -198 -105q-134 0 -207 109l45 33q55 -88 163 -88q107 0 147 78q18 36 18 118v65q-58 -75 -162 -75q-76 0 -136 43q-45 32 -71 83t-26 112q0 115 85 187q63 51 145 51q102 0 167 -73v63h55v-454zM440 144v176
q-19 33 -63.5 62.5t-100.5 29.5q-62 0 -110 -39q-64 -53 -64 -145q0 -47 19.5 -87t52.5 -63q49 -34 103 -34q50 0 93 26.5t70 73.5z" />
    <glyph glyph-name="Hcircumflex" unicode="&#x124;" horiz-adv-x="750" 
d="M600 0v358h-450v-358h-60v700h60v-285h450v285h60v-700h-60zM376 834l-85 -94h-45l95 140h70l95 -140h-45z" />
    <glyph glyph-name="hcircumflex" unicode="&#x125;" horiz-adv-x="577" 
d="M124 844l-85 -94h-45l95 140h70l95 -140h-45zM142 710v-315q53 71 159 71q105 0 162 -77q39 -51 39 -146v-243h-57v239q0 75 -26 112q-42 61 -119 61q-49 0 -90.5 -25t-67.5 -70v-317h-57v710h57z" />
    <glyph glyph-name="Hbar" unicode="&#x126;" horiz-adv-x="750" 
d="M750 605v-57h-90v-548h-60v358h-450v-358h-60v548h-90v57h90v95h60v-95h450v95h60v-95h90zM150 415h450v133h-450v-133z" />
    <glyph glyph-name="hbar" unicode="&#x127;" horiz-adv-x="577" 
d="M142 710v-105h130v-54h-130v-156q53 71 159 71q105 0 162 -77q39 -51 39 -146v-243h-57v239q0 75 -26 112q-42 61 -119 61q-49 0 -90.5 -25t-67.5 -70v-317h-57v551h-85v54h85v105h57z" />
    <glyph glyph-name="Itilde" unicode="&#x128;" horiz-adv-x="240" 
d="M90 0v700h60v-700h-60zM23 766l-40 11q1 33 20.5 58t53.5 25q27 0 67 -22.5t57 -22.5q33 0 36 45l40 -11q-1 -33 -20.5 -58t-53.5 -25q-27 0 -67 22.5t-57 22.5q-33 0 -36 -45z" />
    <glyph glyph-name="itilde" unicode="&#x129;" horiz-adv-x="227" 
d="M85 0v456h57v-456h-57zM17 556l-40 11q1 33 20.5 58t53.5 25q27 0 67 -22.5t57 -22.5q33 0 36 45l40 -11q-1 -33 -20.5 -58t-53.5 -25q-27 0 -67 22.5t-57 22.5q-33 0 -36 -45z" />
    <glyph glyph-name="Imacron" unicode="&#x12a;" horiz-adv-x="240" 
d="M-20 836h280v-50h-280v50zM90 0v700h60v-700h-60z" />
    <glyph glyph-name="imacron" unicode="&#x12b;" horiz-adv-x="227" 
d="M85 0v456h57v-456h-57zM-26 626h280v-50h-280v50z" />
    <glyph glyph-name="Ibreve" unicode="&#x12c;" horiz-adv-x="240" 
d="M90 0v700h60v-700h-60zM195 890h50q0 -52 -36.5 -88.5t-88.5 -36.5t-88.5 36.5t-36.5 88.5h50q0 -31 22 -53t53 -22t53 22t22 53z" />
    <glyph glyph-name="ibreve" unicode="&#x12d;" horiz-adv-x="227" 
d="M85 0v456h57v-456h-57zM189 680h50q0 -52 -36.5 -88.5t-88.5 -36.5t-88.5 36.5t-36.5 88.5h50q0 -31 22 -53t53 -22t53 22t22 53z" />
    <glyph glyph-name="Iogonek" unicode="&#x12e;" horiz-adv-x="240" 
d="M150 700v-700q-32 -45 -32 -97q0 -38 19 -54t45 -16q18 0 40 5l10 -49q-21 -9 -55 -9q-53 0 -84 33.5t-31 84.5q0 57 28 99v703h60z" />
    <glyph glyph-name="iogonek" unicode="&#x12f;" horiz-adv-x="227" 
d="M142 456v-456q-32 -45 -32 -97q0 -38 19 -54t45 -16q17 0 40 5l10 -49q-21 -9 -55 -9q-53 0 -84 33.5t-31 84.5q0 59 31 103v455h57zM63 614q0 21 14.5 36t35.5 15t36 -15t15 -36t-15 -35.5t-36 -14.5t-35.5 14.5t-14.5 35.5z" />
    <glyph glyph-name="Idotaccent" unicode="&#x130;" horiz-adv-x="240" 
d="M70 824q0 21 14.5 36t35.5 15t36 -15t15 -36t-15 -35.5t-36 -14.5t-35.5 14.5t-14.5 35.5zM90 0v700h60v-700h-60z" />
    <glyph glyph-name="dotlessi" unicode="&#x131;" horiz-adv-x="227" 
d="M85 0v456h57v-456h-57z" />
    <glyph glyph-name="IJ" unicode="&#x132;" horiz-adv-x="675" 
d="M90 0v700h60v-700h-60zM240 102l54 22q14 -34 46 -55.5t70 -21.5q72 0 108 60q17 29 17 85v508h60v-505q0 -79 -31 -124q-25 -38 -65.5 -59.5t-88.5 -21.5q-56 0 -102.5 31t-67.5 81z" />
    <glyph glyph-name="ij" unicode="&#x133;" horiz-adv-x="497" 
d="M85 0v456h57v-456h-57zM63 614q0 21 14.5 36t35.5 15t36 -15t15 -36t-15 -35.5t-36 -14.5t-35.5 14.5t-14.5 35.5zM217 -247l5 53q10 -2 25 -2q60 0 89 43q19 28 19 95v514h57v-514q0 -94 -36 -137q-46 -55 -126 -55q-21 0 -33 3zM333 614q0 21 14.5 36t35.5 15t36 -15
t15 -36t-15 -35.5t-36 -14.5t-35.5 14.5t-14.5 35.5z" />
    <glyph glyph-name="Jcircumflex" unicode="&#x134;" horiz-adv-x="435" 
d="M315 834l-85 -94h-45l95 140h70l95 -140h-45zM0 102l54 22q14 -34 46 -55.5t70 -21.5q72 0 108 60q17 29 17 85v508h60v-505q0 -79 -31 -124q-25 -38 -65.5 -59.5t-88.5 -21.5q-56 0 -102.5 31t-67.5 81z" />
    <glyph glyph-name="jcircumflex" unicode="&#x135;" horiz-adv-x="270" 
d="M146 624l-85 -94h-45l95 140h70l95 -140h-45zM-10 -247l5 53q10 -2 25 -2q60 0 89 43q19 28 19 95v514h57v-514q0 -94 -36 -137q-46 -55 -126 -55q-21 0 -33 3z" />
    <glyph glyph-name="Kcommaaccent" unicode="&#x136;" horiz-adv-x="610" 
d="M590 0h-80l-360 354v-354h-60v700h60v-314l330 314h80l-346 -331zM280 -40h75l-95 -140h-45z" />
    <glyph glyph-name="kcommaaccent" unicode="&#x137;" horiz-adv-x="496" 
d="M481 0h-80l-259 241v-241h-57v710h57v-444l233 190h85l-250 -205zM230 -40h75l-95 -140h-45z" />
    <glyph glyph-name="kgreenlandic" unicode="&#x138;" horiz-adv-x="496" 
d="M481 0h-80l-259 241v-241h-57v456h57v-190l233 190h85l-250 -205z" />
    <glyph glyph-name="Lacute" unicode="&#x139;" horiz-adv-x="500" 
d="M150 700v-643h330v-57h-390v700h60zM165 880h75l-95 -140h-45z" />
    <glyph glyph-name="lacute" unicode="&#x13a;" horiz-adv-x="227" 
d="M154 890h75l-95 -140h-45zM85 0v710h57v-710h-57z" />
    <glyph glyph-name="Lcommaaccent" unicode="&#x13b;" horiz-adv-x="500" 
d="M150 700v-643h330v-57h-390v700h60zM250 -40h75l-95 -140h-45z" />
    <glyph glyph-name="lcommaaccent" unicode="&#x13c;" horiz-adv-x="227" 
d="M85 0v710h57v-710h-57zM85 -40h75l-95 -140h-45z" />
    <glyph glyph-name="Lcaron" unicode="&#x13d;" horiz-adv-x="500" 
d="M150 700v-643h330v-57h-390v700h60zM295 700h75l-95 -140h-45z" />
    <glyph glyph-name="lcaron" unicode="&#x13e;" horiz-adv-x="267" 
d="M247 700h75l-95 -140h-45zM85 0v710h57v-710h-57z" />
    <glyph glyph-name="Ldot" unicode="&#x13f;" horiz-adv-x="500" 
d="M150 700v-643h330v-57h-390v700h60zM250 350q0 21 14.5 36t35.5 15t36 -15t15 -36t-15 -35.5t-36 -14.5t-35.5 14.5t-14.5 35.5z" />
    <glyph glyph-name="ldot" unicode="&#x140;" horiz-adv-x="227" 
d="M85 0v710h57v-710h-57zM192 350q0 21 14.5 36t35.5 15t36 -15t15 -36t-15 -35.5t-36 -14.5t-35.5 14.5t-14.5 35.5z" />
    <glyph glyph-name="Lslash" unicode="&#x141;" horiz-adv-x="500" 
d="M150 700v-265l150 87v-63l-150 -87v-315h330v-57h-390v338l-100 -58v63l100 58v299h60z" />
    <glyph glyph-name="lslash" unicode="&#x142;" horiz-adv-x="227" 
d="M85 0v338l-100 -58v62l100 57v311h57v-278l100 58v-61l-100 -58v-371h-57z" />
    <glyph glyph-name="Nacute" unicode="&#x143;" horiz-adv-x="750" 
d="M90 0v700h40l470 -583v583h60v-700h-40l-470 583v-583h-60zM415 880h75l-95 -140h-45z" />
    <glyph glyph-name="nacute" unicode="&#x144;" horiz-adv-x="577" 
d="M337 670h75l-95 -140h-45zM140 456v-64q56 74 161 74t162 -77q39 -51 39 -146v-243h-57v239q0 75 -26 112q-42 61 -119 61q-49 0 -90.5 -25t-67.5 -70v-317h-57v456h55z" />
    <glyph glyph-name="Ncommaaccent" unicode="&#x145;" horiz-adv-x="750" 
d="M90 0v700h40l470 -583v583h60v-700h-40l-470 583v-583h-60zM330 -40h75l-95 -140h-45z" />
    <glyph glyph-name="ncommaaccent" unicode="&#x146;" horiz-adv-x="577" 
d="M250 -40h75l-95 -140h-45zM140 456v-64q56 74 161 74t162 -77q39 -51 39 -146v-243h-57v239q0 75 -26 112q-42 61 -119 61q-49 0 -90.5 -25t-67.5 -70v-317h-57v456h55z" />
    <glyph glyph-name="Ncaron" unicode="&#x147;" horiz-adv-x="750" 
d="M90 0v700h40l470 -583v583h60v-700h-40l-470 583v-583h-60zM290 890l85 -94l85 94h45l-95 -140h-70l-95 140h45z" />
    <glyph glyph-name="ncaron" unicode="&#x148;" horiz-adv-x="577" 
d="M212 680l85 -94l85 94h45l-95 -140h-70l-95 140h45zM140 456v-64q56 74 161 74t162 -77q39 -51 39 -146v-243h-57v239q0 75 -26 112q-42 61 -119 61q-49 0 -90.5 -25t-67.5 -70v-317h-57v456h55z" />
    <glyph glyph-name="napostrophe" unicode="&#x149;" horiz-adv-x="577" 
d="M150 700h75l-95 -140h-45zM140 456v-64q56 74 161 74t162 -77q39 -51 39 -146v-243h-57v239q0 75 -26 112q-42 61 -119 61q-49 0 -90.5 -25t-67.5 -70v-317h-57v456h55z" />
    <glyph glyph-name="Eng" unicode="&#x14a;" horiz-adv-x="750" 
d="M305 -138l54 22q14 -34 46 -55.5t70 -21.5q72 0 108 60q17 29 17 85v73l-450 558v-583h-60v700h40l470 -583v583h60v-745q0 -79 -31 -124q-25 -38 -65.5 -59.5t-88.5 -21.5q-56 0 -102.5 31t-67.5 81z" />
    <glyph glyph-name="eng" unicode="&#x14b;" horiz-adv-x="577" 
d="M140 456v-64q56 74 161 74t162 -77q39 -51 39 -146v-301q0 -93 -36 -136q-46 -56 -126 -56q-50 0 -83 18l23 50q30 -14 57 -14q60 0 89 43q19 28 19 95v297q0 75 -26 112q-42 61 -119 61q-49 0 -90.5 -25t-67.5 -70v-317h-57v456h55z" />
    <glyph glyph-name="Omacron" unicode="&#x14c;" horiz-adv-x="766" 
d="M35 350q0 153 100 256.5t248 103.5t248 -103.5t100 -256.5t-100 -256.5t-248 -103.5t-248 103.5t-100 256.5zM95 350q0 -127 81.5 -215t206.5 -88t206.5 88t81.5 215t-81.5 215t-206.5 88t-206.5 -88t-81.5 -215zM243 836h280v-50h-280v50z" />
    <glyph glyph-name="omacron" unicode="&#x14d;" horiz-adv-x="560" 
d="M458 228q0 77 -50.5 130.5t-127.5 53.5t-127.5 -53.5t-50.5 -130.5t50.5 -130.5t127.5 -53.5t127.5 53.5t50.5 130.5zM515 228q0 -99 -67 -168.5t-168 -69.5t-168 69.5t-67 168.5t67 168.5t168 69.5t168 -69.5t67 -168.5zM140 626h280v-50h-280v50z" />
    <glyph glyph-name="Obreve" unicode="&#x14e;" horiz-adv-x="766" 
d="M458 890h50q0 -52 -36.5 -88.5t-88.5 -36.5t-88.5 36.5t-36.5 88.5h50q0 -31 22 -53t53 -22t53 22t22 53zM35 350q0 153 100 256.5t248 103.5t248 -103.5t100 -256.5t-100 -256.5t-248 -103.5t-248 103.5t-100 256.5zM95 350q0 -127 81.5 -215t206.5 -88t206.5 88
t81.5 215t-81.5 215t-206.5 88t-206.5 -88t-81.5 -215z" />
    <glyph glyph-name="obreve" unicode="&#x14f;" horiz-adv-x="560" 
d="M458 228q0 77 -50.5 130.5t-127.5 53.5t-127.5 -53.5t-50.5 -130.5t50.5 -130.5t127.5 -53.5t127.5 53.5t50.5 130.5zM515 228q0 -99 -67 -168.5t-168 -69.5t-168 69.5t-67 168.5t67 168.5t168 69.5t168 -69.5t67 -168.5zM355 680h50q0 -52 -36.5 -88.5t-88.5 -36.5
t-88.5 36.5t-36.5 88.5h50q0 -31 22 -53t53 -22t53 22t22 53z" />
    <glyph glyph-name="Ohungarumlaut" unicode="&#x150;" horiz-adv-x="766" 
d="M35 350q0 153 100 256.5t248 103.5t248 -103.5t100 -256.5t-100 -256.5t-248 -103.5t-248 103.5t-100 256.5zM95 350q0 -127 81.5 -215t206.5 -88t206.5 88t81.5 215t-81.5 215t-206.5 88t-206.5 -88t-81.5 -215zM364 880h75l-95 -140h-45zM514 880h75l-95 -140h-45z" />
    <glyph glyph-name="ohungarumlaut" unicode="&#x151;" horiz-adv-x="560" 
d="M458 228q0 77 -50.5 130.5t-127.5 53.5t-127.5 -53.5t-50.5 -130.5t50.5 -130.5t127.5 -53.5t127.5 53.5t50.5 130.5zM515 228q0 -99 -67 -168.5t-168 -69.5t-168 69.5t-67 168.5t67 168.5t168 69.5t168 -69.5t67 -168.5zM260 670h75l-95 -140h-45zM410 670h75l-95 -140
h-45z" />
    <glyph glyph-name="OE" unicode="&#x152;" horiz-adv-x="1101" 
d="M1051 643h-320v-228h250v-57h-250v-301h330v-57h-390v145q-46 -72 -122 -113.5t-166 -41.5q-148 0 -248 103.5t-100 256.5t100 256.5t248 103.5q90 0 166 -42t122 -114v146h380v-57zM383 47q125 0 206.5 88t81.5 215t-81.5 215t-206.5 88t-206.5 -88t-81.5 -215
t81.5 -215t206.5 -88z" />
    <glyph glyph-name="oe" unicode="&#x153;" horiz-adv-x="934" 
d="M833 112l40 -38q-28 -36 -76.5 -60t-109.5 -24q-68 0 -120.5 33.5t-81.5 92.5q-28 -58 -81.5 -92t-123.5 -34q-101 0 -168 69.5t-67 168.5t67 168.5t168 69.5q69 0 121.5 -33.5t82.5 -91.5q26 57 76.5 91t115.5 34q91 0 151.5 -64t60.5 -159q0 -11 -1 -20h-372
q3 -76 49.5 -127.5t122.5 -51.5q90 0 146 68zM458 228q0 77 -50.5 130.5t-127.5 53.5t-127.5 -53.5t-50.5 -130.5t50.5 -130.5t127.5 -53.5t127.5 53.5t50.5 130.5zM676 412q-60 0 -102.5 -38t-55.5 -99h311q-9 60 -51.5 98.5t-101.5 38.5z" />
    <glyph glyph-name="Racute" unicode="&#x154;" horiz-adv-x="615" 
d="M610 0h-72l-270 358h-118v-358h-60v700h239q86 0 136 -45q55 -50 55 -126t-55 -126q-45 -42 -125 -45zM150 415h176q65 0 97 30q37 34 37 84t-37 84q-32 30 -97 30h-176v-228zM305 880h75l-95 -140h-45z" />
    <glyph glyph-name="racute" unicode="&#x155;" horiz-adv-x="350" 
d="M320 464l-8 -53q-6 1 -27 1q-46 0 -85.5 -28t-57.5 -73v-311h-57v456h57v-60q18 28 56.5 49t87.5 21q22 0 34 -2zM217 670h75l-95 -140h-45z" />
    <glyph glyph-name="Rcommaaccent" unicode="&#x156;" horiz-adv-x="615" 
d="M610 0h-72l-270 358h-118v-358h-60v700h239q86 0 136 -45q55 -50 55 -126t-55 -126q-45 -42 -125 -45zM150 415h176q65 0 97 30q37 34 37 84t-37 84q-32 30 -97 30h-176v-228zM285 -40h75l-95 -140h-45z" />
    <glyph glyph-name="rcommaaccent" unicode="&#x157;" horiz-adv-x="350" 
d="M85 -40h75l-95 -140h-45zM320 464l-8 -53q-6 1 -27 1q-46 0 -85.5 -28t-57.5 -73v-311h-57v456h57v-60q18 28 56.5 49t87.5 21q22 0 34 -2z" />
    <glyph glyph-name="Rcaron" unicode="&#x158;" horiz-adv-x="615" 
d="M610 0h-72l-270 358h-118v-358h-60v700h239q86 0 136 -45q55 -50 55 -126t-55 -126q-45 -42 -125 -45zM150 415h176q65 0 97 30q37 34 37 84t-37 84q-32 30 -97 30h-176v-228zM205 890l85 -94l85 94h45l-95 -140h-70l-95 140h45z" />
    <glyph glyph-name="rcaron" unicode="&#x159;" horiz-adv-x="350" 
d="M132 680l85 -94l85 94h45l-95 -140h-70l-95 140h45zM320 464l-8 -53q-6 1 -27 1q-46 0 -85.5 -28t-57.5 -73v-311h-57v456h57v-60q18 28 56.5 49t87.5 21q22 0 34 -2z" />
    <glyph glyph-name="Sacute" unicode="&#x15a;" horiz-adv-x="516" 
d="M298 880h75l-95 -140h-45zM35 108l44 39q77 -100 188 -100q56 0 100 36.5t44 94.5q0 44 -26.5 77t-59.5 48.5t-85.5 38.5t-80.5 40q-95 58 -95 144q0 81 57 132.5t142 51.5q99 0 179 -70l-38 -44q-65 57 -139 57q-60 0 -100.5 -34t-40.5 -90q0 -37 25 -65t56.5 -42
t81 -35.5t78.5 -39.5q106 -66 106 -169q0 -82 -58.5 -135t-145.5 -53q-142 0 -232 118z" />
    <glyph glyph-name="sacute" unicode="&#x15b;" horiz-adv-x="425" 
d="M40 55l35 44q65 -55 138 -55q44 0 74.5 22.5t30.5 57.5q0 32 -27 51t-66 29t-77.5 21.5t-65.5 38t-27 69.5q0 59 47 96t108 37q82 0 147 -44l-30 -47q-58 37 -114 37q-40 0 -70.5 -20.5t-30.5 -57.5q0 -27 27 -44t65.5 -27t77.5 -22.5t66 -41t27 -72.5q0 -62 -45.5 -99.5
t-112.5 -37.5q-107 0 -177 65zM247 670h75l-95 -140h-45z" />
    <glyph glyph-name="Scircumflex" unicode="&#x15c;" horiz-adv-x="516" 
d="M263 834l-85 -94h-45l95 140h70l95 -140h-45zM35 108l44 39q77 -100 188 -100q56 0 100 36.5t44 94.5q0 44 -26.5 77t-59.5 48.5t-85.5 38.5t-80.5 40q-95 58 -95 144q0 81 57 132.5t142 51.5q99 0 179 -70l-38 -44q-65 57 -139 57q-60 0 -100.5 -34t-40.5 -90
q0 -37 25 -65t56.5 -42t81 -35.5t78.5 -39.5q106 -66 106 -169q0 -82 -58.5 -135t-145.5 -53q-142 0 -232 118z" />
    <glyph glyph-name="scircumflex" unicode="&#x15d;" horiz-adv-x="425" 
d="M40 55l35 44q65 -55 138 -55q44 0 74.5 22.5t30.5 57.5q0 32 -27 51t-66 29t-77.5 21.5t-65.5 38t-27 69.5q0 59 47 96t108 37q82 0 147 -44l-30 -47q-58 37 -114 37q-40 0 -70.5 -20.5t-30.5 -57.5q0 -27 27 -44t65.5 -27t77.5 -22.5t66 -41t27 -72.5q0 -62 -45.5 -99.5
t-112.5 -37.5q-107 0 -177 65zM215 624l-85 -94h-45l95 140h70l95 -140h-45z" />
    <glyph glyph-name="Scedilla" unicode="&#x15e;" horiz-adv-x="516" 
d="M198 -140l48 131q-129 8 -211 117l44 39q77 -100 188 -100q56 0 100 36.5t44 94.5q0 44 -26.5 77t-59.5 48.5t-85.5 38.5t-80.5 40q-95 58 -95 144q0 81 57 132.5t142 51.5q99 0 179 -70l-38 -44q-65 57 -139 57q-60 0 -100.5 -34t-40.5 -90q0 -37 25 -65t56.5 -42
t81 -35.5t78.5 -39.5q106 -66 106 -169q0 -75 -50 -126.5t-126 -59.5l-22 -132h-75z" />
    <glyph glyph-name="scedilla" unicode="&#x15f;" horiz-adv-x="425" 
d="M147 -140l48 131q-95 7 -155 64l35 44q65 -55 138 -55q44 0 74.5 22.5t30.5 57.5q0 32 -27 51t-66 29t-77.5 21.5t-65.5 38t-27 69.5q0 59 47 96t108 37q82 0 147 -44l-30 -47q-58 37 -114 37q-40 0 -70.5 -20.5t-30.5 -57.5q0 -27 27 -44t65.5 -27t77.5 -22.5t66 -41
t27 -72.5q0 -55 -37 -91.5t-94 -43.5l-22 -132h-75z" />
    <glyph glyph-name="Scaron" unicode="&#x160;" horiz-adv-x="516" 
d="M172 890l85 -94l85 94h45l-95 -140h-70l-95 140h45zM35 108l44 39q77 -100 188 -100q56 0 100 36.5t44 94.5q0 44 -26.5 77t-59.5 48.5t-85.5 38.5t-80.5 40q-95 58 -95 144q0 81 57 132.5t142 51.5q99 0 179 -70l-38 -44q-65 57 -139 57q-60 0 -100.5 -34t-40.5 -90
q0 -37 25 -65t56.5 -42t81 -35.5t78.5 -39.5q106 -66 106 -169q0 -82 -58.5 -135t-145.5 -53q-142 0 -232 118z" />
    <glyph glyph-name="scaron" unicode="&#x161;" horiz-adv-x="425" 
d="M40 55l35 44q65 -55 138 -55q44 0 74.5 22.5t30.5 57.5q0 32 -27 51t-66 29t-77.5 21.5t-65.5 38t-27 69.5q0 59 47 96t108 37q82 0 147 -44l-30 -47q-58 37 -114 37q-40 0 -70.5 -20.5t-30.5 -57.5q0 -27 27 -44t65.5 -27t77.5 -22.5t66 -41t27 -72.5q0 -62 -45.5 -99.5
t-112.5 -37.5q-107 0 -177 65zM122 680l85 -94l85 94h45l-95 -140h-70l-95 140h45z" />
    <glyph glyph-name="Tcommaaccent" unicode="&#x162;" horiz-adv-x="500" 
d="M20 700h460v-57h-200v-643h-60v643h-200v57zM220 -40h75l-95 -140h-45z" />
    <glyph glyph-name="tcommaaccent" unicode="&#x163;" horiz-adv-x="386" 
d="M218 -40h75l-95 -140h-45zM340 456v-54h-155v-250q0 -51 20 -76q26 -32 76 -32q29 0 49 6l10 -52q-24 -8 -59 -8q-81 0 -122 52q-31 39 -31 112v248h-128v54h128v124h57v-124h155z" />
    <glyph glyph-name="Tcaron" unicode="&#x164;" horiz-adv-x="500" 
d="M165 890l85 -94l85 94h45l-95 -140h-70l-95 140h45zM20 700h460v-57h-200v-643h-60v643h-200v57z" />
    <glyph glyph-name="tcaron" unicode="&#x165;" horiz-adv-x="385" 
d="M290 700h75l-95 -140h-45zM340 456v-54h-155v-250q0 -51 20 -76q26 -32 76 -32q29 0 49 6l10 -52q-24 -8 -59 -8q-81 0 -122 52q-31 39 -31 112v248h-128v54h128v124h57v-124h155z" />
    <glyph glyph-name="Tbar" unicode="&#x166;" horiz-adv-x="500" 
d="M440 358h-160v-358h-60v358h-160v57h160v228h-200v57h460v-57h-200v-228h160v-57z" />
    <glyph glyph-name="tbar" unicode="&#x167;" horiz-adv-x="386" 
d="M340 456v-54h-155v-140h155v-54h-155v-56q0 -51 20 -76q26 -32 76 -32q29 0 49 6l10 -52q-24 -8 -59 -8q-81 0 -122 52q-31 39 -31 112v54h-128v54h128v140h-128v54h128v124h57v-124h155z" />
    <glyph glyph-name="Utilde" unicode="&#x168;" horiz-adv-x="720" 
d="M360 -10q-75 0 -138.5 34t-100.5 93q-41 65 -41 163v420h60v-423q0 -80 31 -130q30 -46 80 -73t109 -27t109 27t80 73q31 50 31 130v423h60v-420q0 -98 -41 -163q-37 -59 -100.5 -93t-138.5 -34zM263 766l-40 11q1 33 20.5 58t53.5 25q27 0 67 -22.5t57 -22.5q33 0 36 45
l40 -11q-1 -33 -20.5 -58t-53.5 -25q-27 0 -67 22.5t-57 22.5q-33 0 -36 -45z" />
    <glyph glyph-name="utilde" unicode="&#x169;" horiz-adv-x="567" 
d="M425 0v60q-25 -31 -66.5 -50.5t-85.5 -19.5q-55 0 -100.5 26t-70.5 70q-27 49 -27 129v241h57v-234q0 -79 26 -118q40 -60 115 -60q46 0 87.5 26t64.5 69v317h57v-456h-57zM182 556l-40 11q1 33 20.5 58t53.5 25q27 0 67 -22.5t57 -22.5q33 0 36 45l40 -11
q-1 -33 -20.5 -58t-53.5 -25q-27 0 -67 22.5t-57 22.5q-33 0 -36 -45z" />
    <glyph glyph-name="Umacron" unicode="&#x16a;" horiz-adv-x="720" 
d="M220 836h280v-50h-280v50zM360 -10q-75 0 -138.5 34t-100.5 93q-41 65 -41 163v420h60v-423q0 -80 31 -130q30 -46 80 -73t109 -27t109 27t80 73q31 50 31 130v423h60v-420q0 -98 -41 -163q-37 -59 -100.5 -93t-138.5 -34z" />
    <glyph glyph-name="umacron" unicode="&#x16b;" horiz-adv-x="567" 
d="M139 626h280v-50h-280v50zM427 0v62q-25 -32 -66.5 -52t-87.5 -20q-56 0 -101 25t-70 69q-27 49 -27 129v243h57v-234q0 -79 26 -118q40 -60 115 -60q46 0 87.5 26t64.5 69v317h57v-456h-55z" />
    <glyph glyph-name="Ubreve" unicode="&#x16c;" horiz-adv-x="720" 
d="M435 890h50q0 -52 -36.5 -88.5t-88.5 -36.5t-88.5 36.5t-36.5 88.5h50q0 -31 22 -53t53 -22t53 22t22 53zM360 -10q-75 0 -138.5 34t-100.5 93q-41 65 -41 163v420h60v-423q0 -80 31 -130q30 -46 80 -73t109 -27t109 27t80 73q31 50 31 130v423h60v-420q0 -98 -41 -163
q-37 -59 -100.5 -93t-138.5 -34z" />
    <glyph glyph-name="ubreve" unicode="&#x16d;" horiz-adv-x="567" 
d="M354 680h50q0 -52 -36.5 -88.5t-88.5 -36.5t-88.5 36.5t-36.5 88.5h50q0 -31 22 -53t53 -22t53 22t22 53zM427 0v62q-25 -32 -66.5 -52t-87.5 -20q-56 0 -101 25t-70 69q-27 49 -27 129v243h57v-234q0 -79 26 -118q40 -60 115 -60q46 0 87.5 26t64.5 69v317h57v-456h-55z
" />
    <glyph glyph-name="Uring" unicode="&#x16e;" horiz-adv-x="720" 
d="M360 -10q-75 0 -138.5 34t-100.5 93q-41 65 -41 163v420h60v-423q0 -80 31 -130q30 -46 80 -73t109 -27t109 27t80 73q31 50 31 130v423h60v-420q0 -98 -41 -163q-37 -59 -100.5 -93t-138.5 -34zM270 820q0 38 26 64t64 26t64 -26t26 -64t-26 -64t-64 -26t-64 26t-26 64z
M310 820q0 -21 14.5 -35.5t35.5 -14.5t35.5 14.5t14.5 35.5t-14.5 35.5t-35.5 14.5t-35.5 -14.5t-14.5 -35.5z" />
    <glyph glyph-name="uring" unicode="&#x16f;" horiz-adv-x="567" 
d="M189 610q0 38 26.5 64t63.5 26t63.5 -26t26.5 -64t-26.5 -64t-63.5 -26t-63.5 26t-26.5 64zM229 610q0 -21 14.5 -35.5t35.5 -14.5t35.5 14.5t14.5 35.5t-14.5 35.5t-35.5 14.5t-35.5 -14.5t-14.5 -35.5zM427 0v62q-25 -32 -66.5 -52t-87.5 -20q-56 0 -101 25t-70 69
q-27 49 -27 129v243h57v-234q0 -79 26 -118q40 -60 115 -60q46 0 87.5 26t64.5 69v317h57v-456h-55z" />
    <glyph glyph-name="Uhungarumlaut" unicode="&#x170;" horiz-adv-x="720" 
d="M324 880h75l-95 -140h-45zM474 880h75l-95 -140h-45zM360 -10q-75 0 -138.5 34t-100.5 93q-41 65 -41 163v420h60v-423q0 -80 31 -130q30 -46 80 -73t109 -27t109 27t80 73q31 50 31 130v423h60v-420q0 -98 -41 -163q-37 -59 -100.5 -93t-138.5 -34z" />
    <glyph glyph-name="uhungarumlaut" unicode="&#x171;" horiz-adv-x="567" 
d="M246 670h75l-95 -140h-45zM396 670h75l-95 -140h-45zM427 0v62q-25 -32 -66.5 -52t-87.5 -20q-56 0 -101 25t-70 69q-27 49 -27 129v243h57v-234q0 -79 26 -118q40 -60 115 -60q46 0 87.5 26t64.5 69v317h57v-456h-55z" />
    <glyph glyph-name="Uogonek" unicode="&#x172;" horiz-adv-x="720" 
d="M360 -10q-75 0 -138.5 34t-100.5 93q-41 65 -41 163v420h60v-423q0 -80 31 -130q30 -46 80 -73t109 -27t109 27t80 73q31 50 31 130v423h60v-420q0 -98 -41 -163q-53 -82 -148 -113q-35 -45 -35 -101q0 -38 19 -54t45 -16q17 0 40 5l10 -49q-21 -9 -55 -9q-53 0 -84 33.5
t-31 84.5q0 50 25 93q-12 -1 -25 -1z" />
    <glyph glyph-name="uogonek" unicode="&#x173;" horiz-adv-x="567" 
d="M427 0v62q-26 -34 -70 -54q-12 -13 -25 -42t-13 -63q0 -38 19 -54t45 -16q17 0 40 5l10 -49q-21 -9 -55 -9q-53 0 -84 33.5t-31 84.5t23 93q-4 -1 -13 -1q-56 0 -101 25t-70 69q-27 49 -27 129v243h57v-234q0 -79 26 -118q40 -60 115 -60q46 0 87.5 26t64.5 69v317h57
v-456h-55z" />
    <glyph glyph-name="Wcircumflex" unicode="&#x174;" horiz-adv-x="942" 
d="M451 700h40l187 -579l188 579h61l-230 -700h-40l-186 575l-186 -575h-40l-230 700h61l188 -579zM471 834l-85 -94h-45l95 140h70l95 -140h-45z" />
    <glyph glyph-name="wcircumflex" unicode="&#x175;" horiz-adv-x="762" 
d="M381 363l-148 -363h-37l-176 456h59l138 -358l146 358h36l146 -358l138 358h59l-176 -456h-37zM381 624l-85 -94h-45l95 140h70l95 -140h-45z" />
    <glyph glyph-name="Ycircumflex" unicode="&#x176;" horiz-adv-x="560" 
d="M550 700l-240 -371v-329h-60v329l-240 371h68l202 -313l202 313h68zM280 834l-85 -94h-45l95 140h70l95 -140h-45z" />
    <glyph glyph-name="ycircumflex" unicode="&#x177;" horiz-adv-x="487" 
d="M244 624l-85 -94h-45l95 140h70l95 -140h-45zM156 -240h-60l125 277l-206 419h64l171 -354l161 354h61z" />
    <glyph glyph-name="Ydieresis" unicode="&#x178;" horiz-adv-x="560" 
d="M550 700l-240 -371v-329h-60v329l-240 371h68l202 -313l202 313h68zM311 804q0 21 14.5 36t35.5 15t36 -15t15 -36t-15 -35.5t-36 -14.5t-35.5 14.5t-14.5 35.5zM148 804q0 21 14.5 36t35.5 15t36 -15t15 -36t-15 -35.5t-36 -14.5t-35.5 14.5t-14.5 35.5z" />
    <glyph glyph-name="Zacute" unicode="&#x179;" horiz-adv-x="585" 
d="M335 880h75l-95 -140h-45zM40 37l409 606h-379v57h460v-37l-407 -606h427v-57h-510v37z" />
    <glyph glyph-name="zacute" unicode="&#x17a;" horiz-adv-x="470" 
d="M40 34l304 368h-279v54h365v-34l-305 -368h315v-54h-400v34zM290 670h75l-95 -140h-45z" />
    <glyph glyph-name="Zdotaccent" unicode="&#x17b;" horiz-adv-x="585" 
d="M40 37l409 606h-379v57h460v-37l-407 -606h427v-57h-510v37zM246 824q0 21 14.5 36t35.5 15t36 -15t15 -36t-15 -35.5t-36 -14.5t-35.5 14.5t-14.5 35.5z" />
    <glyph glyph-name="zdotaccent" unicode="&#x17c;" horiz-adv-x="470" 
d="M40 34l304 368h-279v54h365v-34l-305 -368h315v-54h-400v34zM204 614q0 21 14.5 36t35.5 15t36 -15t15 -36t-15 -35.5t-36 -14.5t-35.5 14.5t-14.5 35.5z" />
    <glyph glyph-name="Zcaron" unicode="&#x17d;" horiz-adv-x="585" 
d="M40 37l409 606h-379v57h460v-37l-407 -606h427v-57h-510v37zM211 890l85 -94l85 94h45l-95 -140h-70l-95 140h45z" />
    <glyph glyph-name="zcaron" unicode="&#x17e;" horiz-adv-x="470" 
d="M40 34l304 368h-279v54h365v-34l-305 -368h315v-54h-400v34zM175 680l85 -94l85 94h45l-95 -140h-70l-95 140h45z" />
    <glyph glyph-name="longs" unicode="&#x17f;" horiz-adv-x="381" 
d="M187 528v-528h-57v525q0 90 39 137q49 58 130 58q45 0 82 -18l-23 -51q-33 15 -60 15q-58 0 -89 -45q-22 -32 -22 -93z" />
    <glyph glyph-name="uni018F" unicode="&#x18f;" horiz-adv-x="722" 
d="M357 47q106 0 178 70.5t90 183.5h-529q10 -114 84.5 -184t176.5 -70zM37 358h590q-4 127 -79.5 211t-202.5 84q-147 0 -250 -115l-42 42q50 54 124.5 92t167.5 38q154 0 248 -104t94 -256q0 -151 -93 -255.5t-237 -104.5q-138 0 -230 96.5t-92 240.5q0 17 2 31z" />
    <glyph glyph-name="florin" unicode="&#x192;" horiz-adv-x="511" 
d="M278 520q-17 -88 -23 -129h157v-54h-165q-6 -40 -16 -121t-20 -147.5t-24 -139.5q-20 -102 -78 -146q-44 -33 -113 -33q-47 0 -86 17l20 52q28 -15 66 -15q59 0 91 32.5t46 103.5q14 72 24 136.5t20 145.5t15 115h-143v54h150q12 74 25 140q20 102 78 146q44 33 113 33
q47 0 86 -17l-20 -52q-28 15 -66 15q-59 0 -91 -32.5t-46 -103.5z" />
    <glyph glyph-name="uni01B5" unicode="&#x1b5;" horiz-adv-x="585" 
d="M130 415h165l154 228h-379v57h460v-37l-167 -248h127v-57h-165l-202 -301h427v-57h-510v37l216 321h-126v57z" />
    <glyph glyph-name="uni01B6" unicode="&#x1b6;" horiz-adv-x="470" 
d="M85 262h143l116 140h-279v54h365v-34l-133 -160h113v-54h-158l-127 -154h315v-54h-400v34l143 174h-98v54z" />
    <glyph glyph-name="Aringacute" unicode="&#x1fa;" horiz-adv-x="654" 
d="M237 820q0 38 26.5 64t63.5 26t63.5 -26t26.5 -64t-26.5 -64t-63.5 -26t-63.5 26t-26.5 64zM277 820q0 -21 14.5 -35.5t35.5 -14.5t35.5 14.5t14.5 35.5t-14.5 35.5t-35.5 14.5t-35.5 -14.5t-14.5 -35.5zM371 1084h75l-95 -140h-45zM307 700h40l302 -700h-60l-92 211
h-340l-92 -211h-60zM327 606l-146 -338h291z" />
    <glyph glyph-name="aringacute" unicode="&#x1fb;" horiz-adv-x="582" 
d="M202 610q0 38 26 64t64 26t64 -26t26 -64t-26 -64t-64 -26t-64 26t-26 64zM242 610q0 -21 14.5 -35.5t35.5 -14.5t35.5 14.5t14.5 35.5t-14.5 35.5t-35.5 14.5t-35.5 -14.5t-14.5 -35.5zM336 874h75l-95 -140h-45zM497 0h-55v67q-57 -77 -164 -77q-76 0 -136 43
q-45 32 -71 83t-26 112q0 115 85 187q63 51 145 51q102 0 167 -73v63h55v-456zM440 144v176q-19 33 -63.5 62.5t-100.5 29.5q-62 0 -110 -39q-64 -53 -64 -145q0 -47 19.5 -87t52.5 -63q49 -34 103 -34q50 0 93 26.5t70 73.5z" />
    <glyph glyph-name="AEacute" unicode="&#x1fc;" horiz-adv-x="870" 
d="M482 880h75l-95 -140h-45zM820 643h-320v-228h250v-57h-250v-301h330v-57h-390v211h-267l-127 -211h-66l418 700h422v-57zM207 268h233v392z" />
    <glyph glyph-name="aeacute" unicode="&#x1fd;" horiz-adv-x="915" 
d="M505 670h75l-95 -140h-45zM495 0h-53v67q-57 -77 -164 -77q-76 0 -136 43q-45 32 -71 83t-26 112q0 115 85 187q63 51 145 51q102 0 167 -73v63h53v-70q60 80 163 80q91 0 151.5 -64t60.5 -159q0 -11 -1 -20h-372q3 -76 49.5 -127.5t122.5 -51.5q90 0 146 68l40 -38
q-28 -36 -76.5 -60t-109.5 -24q-109 0 -174 84v-74zM440 144v176q-19 33 -63.5 62.5t-100.5 29.5q-62 0 -110 -39q-64 -53 -64 -145q0 -47 19.5 -87t52.5 -63q49 -34 103 -34q50 0 93 26.5t70 73.5zM658 412q-60 0 -102.5 -38t-55.5 -99h311q-9 60 -51.5 98.5t-101.5 38.5z
" />
    <glyph glyph-name="Oslashacute" unicode="&#x1fe;" horiz-adv-x="766" 
d="M428 880h76l-96 -140h-46zM35 350q0 153 100 256.5t248 103.5q100 0 183 -51l36 51h66l-59 -83q57 -50 89.5 -122t32.5 -155q0 -153 -100 -256.5t-248 -103.5q-102 0 -184 51l-36 -51h-65l58 83q-57 49 -89 121t-32 156zM671 350q0 138 -96 228l-343 -489q67 -42 151 -42
q125 0 206.5 88t81.5 215zM95 350q0 -139 95 -228l343 489q-67 42 -150 42q-125 0 -206.5 -88t-81.5 -215z" />
    <glyph glyph-name="oslashacute" unicode="&#x1ff;" horiz-adv-x="560" 
d="M326 670h75l-95 -140h-45zM515 228q0 -99 -67 -168.5t-168 -69.5q-61 0 -116 29l-20 -29h-64l41 60q-76 68 -76 178q0 99 67 168.5t168 69.5q63 0 115 -30l21 30h64l-42 -60q77 -71 77 -178zM102 228q0 -79 53 -134l207 298q-37 20 -82 20q-77 0 -127.5 -53.5
t-50.5 -130.5zM458 228q0 81 -54 133l-206 -298q38 -19 82 -19q77 0 127.5 53.5t50.5 130.5z" />
    <glyph glyph-name="Scommaaccent" unicode="&#x218;" horiz-adv-x="516" 
d="M35 108l44 39q77 -100 188 -100q56 0 100 36.5t44 94.5q0 44 -26.5 77t-59.5 48.5t-85.5 38.5t-80.5 40q-95 58 -95 144q0 81 57 132.5t142 51.5q99 0 179 -70l-38 -44q-65 57 -139 57q-60 0 -100.5 -34t-40.5 -90q0 -37 25 -65t56.5 -42t81 -35.5t78.5 -39.5
q106 -66 106 -169q0 -82 -58.5 -135t-145.5 -53q-142 0 -232 118z" />
    <glyph glyph-name="scommaaccent" unicode="&#x219;" horiz-adv-x="425" 
d="M40 55l35 44q65 -55 138 -55q44 0 74.5 22.5t30.5 57.5q0 32 -27 51t-66 29t-77.5 21.5t-65.5 38t-27 69.5q0 59 47 96t108 37q82 0 147 -44l-30 -47q-58 37 -114 37q-40 0 -70.5 -20.5t-30.5 -57.5q0 -27 27 -44t65.5 -27t77.5 -22.5t66 -41t27 -72.5q0 -62 -45.5 -99.5
t-112.5 -37.5q-107 0 -177 65z" />
    <glyph glyph-name="uni0237" unicode="&#x237;" horiz-adv-x="270" 
d="M-10 -247l5 53q10 -2 25 -2q60 0 89 43q19 28 19 95v514h57v-514q0 -94 -36 -137q-46 -55 -126 -55q-21 0 -33 3z" />
    <glyph glyph-name="uni0259" unicode="&#x259;" horiz-adv-x="520" 
d="M257 44q60 0 102.5 38t55.5 99h-311q9 -60 51.5 -98.5t101.5 -38.5zM100 344l-40 38q28 36 76.5 60t109.5 24q98 0 163.5 -66.5t65.5 -171.5q0 -100 -61.5 -169t-156.5 -69q-91 0 -151.5 64t-60.5 159q0 11 1 20h372q-3 76 -49.5 127.5t-122.5 51.5q-90 0 -146 -68z" />
    <glyph glyph-name="circumflex" unicode="&#x2c6;" horiz-adv-x="400" 
d="M200 624l-85 -94h-45l95 140h70l95 -140h-45z" />
    <glyph glyph-name="caron" unicode="&#x2c7;" horiz-adv-x="400" 
d="M115 680l85 -94l85 94h45l-95 -140h-70l-95 140h45z" />
    <glyph glyph-name="breve" unicode="&#x2d8;" horiz-adv-x="390" 
d="M270 680h50q0 -52 -36.5 -88.5t-88.5 -36.5t-88.5 36.5t-36.5 88.5h50q0 -31 22 -53t53 -22t53 22t22 53z" />
    <glyph glyph-name="dotaccent" unicode="&#x2d9;" horiz-adv-x="241" 
d="M70 614q0 21 14.5 36t35.5 15t36 -15t15 -36t-15 -35.5t-36 -14.5t-35.5 14.5t-14.5 35.5z" />
    <glyph glyph-name="ring" unicode="&#x2da;" horiz-adv-x="320" 
d="M70 610q0 38 26 64t64 26t64 -26t26 -64t-26 -64t-64 -26t-64 26t-26 64zM110 610q0 -21 14.5 -35.5t35.5 -14.5t35.5 14.5t14.5 35.5t-14.5 35.5t-35.5 14.5t-35.5 -14.5t-14.5 -35.5z" />
    <glyph glyph-name="ogonek" unicode="&#x2db;" horiz-adv-x="310" 
d="M108 10h58q-40 -46 -40 -107q0 -38 19 -54t45 -16q18 0 40 5l10 -49q-21 -9 -55 -9q-53 0 -84 33.5t-31 84.5q0 29 9 56t16.5 39t12.5 17z" />
    <glyph glyph-name="tilde" unicode="&#x2dc;" horiz-adv-x="414" 
d="M110 556l-40 11q1 33 20.5 58t53.5 25q27 0 67 -22.5t57 -22.5q33 0 36 45l40 -11q-1 -33 -20.5 -58t-53.5 -25q-27 0 -67 22.5t-57 22.5q-33 0 -36 -45z" />
    <glyph glyph-name="hungarumlaut" unicode="&#x2dd;" horiz-adv-x="430" 
d="M135 670h75l-95 -140h-45zM285 670h75l-95 -140h-45z" />
    <glyph glyph-name="pi" unicode="&#x3c0;" horiz-adv-x="530" 
d="M53 327l-48 29q35 58 93 82q44 18 106 18h321v-54h-100v-271q0 -36 8 -57q9 -22 32 -39l-32 -45q-35 28 -50 58q-15 32 -15 92v262h-156v-402h-57v397q-63 -5 -102 -70z" />
    <glyph glyph-name="Wgrave" unicode="&#x1e80;" horiz-adv-x="942" 
d="M451 700h40l187 -579l188 579h61l-230 -700h-40l-186 575l-186 -575h-40l-230 700h61l188 -579zM351 880h75l65 -140h-45z" />
    <glyph glyph-name="wgrave" unicode="&#x1e81;" horiz-adv-x="762" 
d="M381 363l-148 -363h-37l-176 456h59l138 -358l146 358h36l146 -358l138 358h59l-176 -456h-37zM259 670h75l65 -140h-45z" />
    <glyph glyph-name="Wacute" unicode="&#x1e82;" horiz-adv-x="942" 
d="M451 700h40l187 -579l188 579h61l-230 -700h-40l-186 575l-186 -575h-40l-230 700h61l188 -579zM516 880h75l-95 -140h-45z" />
    <glyph glyph-name="wacute" unicode="&#x1e83;" horiz-adv-x="762" 
d="M381 363l-148 -363h-37l-176 456h59l138 -358l146 358h36l146 -358l138 358h59l-176 -456h-37zM428 670h75l-95 -140h-45z" />
    <glyph glyph-name="Wdieresis" unicode="&#x1e84;" horiz-adv-x="942" 
d="M451 700h40l187 -579l188 579h61l-230 -700h-40l-186 575l-186 -575h-40l-230 700h61l188 -579zM502 804q0 21 14.5 36t35.5 15t36 -15t15 -36t-15 -35.5t-36 -14.5t-35.5 14.5t-14.5 35.5zM339 804q0 21 14.5 36t35.5 15t36 -15t15 -36t-15 -35.5t-36 -14.5t-35.5 14.5
t-14.5 35.5z" />
    <glyph glyph-name="wdieresis" unicode="&#x1e85;" horiz-adv-x="762" 
d="M381 363l-148 -363h-37l-176 456h59l138 -358l146 358h36l146 -358l138 358h59l-176 -456h-37zM412 594q0 21 14.5 36t35.5 15t36 -15t15 -36t-15 -35.5t-36 -14.5t-35.5 14.5t-14.5 35.5zM249 594q0 21 14.5 36t35.5 15t36 -15t15 -36t-15 -35.5t-36 -14.5t-35.5 14.5
t-14.5 35.5z" />
    <glyph glyph-name="uni1E8A" unicode="&#x1e8a;" horiz-adv-x="610" 
d="M255 824q0 21 14.5 36t35.5 15t36 -15t15 -36t-15 -35.5t-36 -14.5t-35.5 14.5t-14.5 35.5zM88 0h-68l246 384l-202 316h67l174 -271l174 271h67l-202 -316l246 -384h-68l-217 339z" />
    <glyph glyph-name="uni1E8B" unicode="&#x1e8b;" horiz-adv-x="462" 
d="M380 0l-149 207l-149 -207h-67l176 245l-151 211h67l124 -173l124 173h67l-151 -211l176 -245h-67zM181 614q0 21 14.5 36t35.5 15t36 -15t15 -36t-15 -35.5t-36 -14.5t-35.5 14.5t-14.5 35.5z" />
    <glyph glyph-name="Ygrave" unicode="&#x1ef2;" horiz-adv-x="560" 
d="M550 700l-240 -371v-329h-60v329l-240 371h68l202 -313l202 313h68zM164 880h75l65 -140h-45z" />
    <glyph glyph-name="ygrave" unicode="&#x1ef3;" horiz-adv-x="487" 
d="M131 670h75l65 -140h-45zM156 -240h-60l125 277l-206 419h64l171 -354l161 354h61z" />
    <glyph glyph-name="endash" unicode="&#x2013;" horiz-adv-x="450" 
d="M20 274h410v-49h-410v49z" />
    <glyph glyph-name="emdash" unicode="&#x2014;" horiz-adv-x="750" 
d="M20 274h710v-49h-710v49z" />
    <glyph glyph-name="quoteleft" unicode="&#x2018;" horiz-adv-x="266" 
d="M206 700l-71 -240h-75l96 240h50z" />
    <glyph glyph-name="quoteright" unicode="&#x2019;" horiz-adv-x="266" 
d="M60 460l71 240h75l-96 -240h-50z" />
    <glyph glyph-name="quotesinglbase" unicode="&#x201a;" horiz-adv-x="266" 
d="M60 -140l71 240h75l-96 -240h-50z" />
    <glyph glyph-name="quotedblleft" unicode="&#x201c;" horiz-adv-x="456" 
d="M396 700l-71 -240h-75l96 240h50zM206 700l-71 -240h-75l96 240h50z" />
    <glyph glyph-name="quotedblright" unicode="&#x201d;" horiz-adv-x="456" 
d="M60 460l71 240h75l-96 -240h-50zM250 460l71 240h75l-96 -240h-50z" />
    <glyph glyph-name="quotedblbase" unicode="&#x201e;" horiz-adv-x="456" 
d="M60 -140l71 240h75l-96 -240h-50zM250 -140l71 240h75l-96 -240h-50z" />
    <glyph glyph-name="dagger" unicode="&#x2020;" horiz-adv-x="505" 
d="M224 -200v596h-174v54h174v250h57v-250h174v-54h-174v-596h-57z" />
    <glyph glyph-name="daggerdbl" unicode="&#x2021;" horiz-adv-x="505" 
d="M50 210h174v186h-174v54h174v250h57v-250h174v-54h-174v-186h174v-54h-174v-356h-57v356h-174v54z" />
    <glyph glyph-name="bullet" unicode="&#x2022;" horiz-adv-x="520" 
d="M80 228q0 74 53 127t127 53t127 -53t53 -127t-53 -127t-127 -53t-127 53t-53 127z" />
    <glyph glyph-name="ellipsis" unicode="&#x2026;" horiz-adv-x="824" 
d="M110 42q0 22 15 37t37 15t37 -15t15 -37t-15 -37t-37 -15t-37 15t-15 37zM370 42q0 22 15 37t37 15t37 -15t15 -37t-15 -37t-37 -15t-37 15t-15 37zM630 42q0 22 15 37t37 15t37 -15t15 -37t-15 -37t-37 -15t-37 15t-15 37z" />
    <glyph glyph-name="perthousand" unicode="&#x2030;" horiz-adv-x="1185" 
d="M482 169q0 75 50 127t124 52q47 0 85.5 -22t61.5 -60q23 38 62 60t86 22q74 0 124 -52t50 -127t-50 -127t-124 -52q-47 0 -86 22t-62 60q-49 -82 -147 -82q-74 0 -124 52t-50 127zM60 531q0 75 50 127t124 52t124 -52t50 -127t-50 -127t-124 -52t-124 52t-50 127z
M777 169q0 54 -35 91.5t-86 37.5t-86 -37.5t-35 -91.5t35 -91.5t86 -37.5t86 37.5t35 91.5zM355 531q0 54 -35 91.5t-86 37.5t-86 -37.5t-35 -91.5t35 -91.5t86 -37.5t86 37.5t35 91.5zM267 0h-52l408 700h52zM1072 169q0 54 -35 91.5t-86 37.5t-86 -37.5t-35 -91.5
t35 -91.5t86 -37.5t86 37.5t35 91.5z" />
    <glyph glyph-name="guilsinglleft" unicode="&#x2039;" horiz-adv-x="335" 
d="M224 420h71l-158 -185l158 -185h-71l-144 168v34z" />
    <glyph glyph-name="guilsinglright" unicode="&#x203a;" horiz-adv-x="335" 
d="M40 420h71l144 -168v-34l-144 -168h-71l158 185z" />
    <glyph glyph-name="fraction" unicode="&#x2044;" horiz-adv-x="470" 
d="M57 0h-52l408 700h52z" />
    <glyph glyph-name="uni2070" unicode="&#x2070;" horiz-adv-x="320" 
d="M285 520q0 -85 -30.5 -137.5t-94.5 -52.5t-94.5 52.5t-30.5 137.5t30.5 137.5t94.5 52.5t94.5 -52.5t30.5 -137.5zM82 520q0 -146 78 -146t78 146t-78 146t-78 -146z" />
    <glyph glyph-name="uni2074" unicode="&#x2074;" horiz-adv-x="300" 
d="M10 425v24l193 251h27v-231h60v-44h-60v-85h-47v85h-173zM82 469h101v131z" />
    <glyph glyph-name="uni2075" unicode="&#x2075;" horiz-adv-x="260" 
d="M115 580q52 0 88.5 -37t36.5 -88q0 -52 -35.5 -88.5t-89.5 -36.5q-69 0 -105 53l35 27q26 -36 69 -36q35 0 57 23.5t22 57.5t-23 58t-58 24q-29 0 -55 -19l-27 4l19 178h171v-44h-129l-9 -79q15 3 33 3z" />
    <glyph glyph-name="uni2076" unicode="&#x2076;" horiz-adv-x="298" 
d="M67 454q0 -34 22.5 -57t57.5 -23q34 0 56.5 23.5t22.5 56.5q0 34 -22.5 57.5t-56.5 23.5q-31 0 -58 -19q-22 -33 -22 -62zM208 700l-82 -124q9 3 26 3q49 0 85 -36.5t36 -88.5t-36 -88t-90 -36q-55 0 -91 36.5t-36 87.5q0 45 46 114l89 132h53z" />
    <glyph glyph-name="uni2077" unicode="&#x2077;" horiz-adv-x="255" 
d="M75 340h-50l155 316h-165v44h225v-24z" />
    <glyph glyph-name="uni2078" unicode="&#x2078;" horiz-adv-x="293" 
d="M146 519q-34 0 -56.5 -21t-22.5 -53q0 -30 22.5 -50.5t56.5 -20.5q35 0 57 20.5t22 50.5q0 32 -22 53t-57 21zM146 666q-23 0 -39 -15t-16 -37t16 -37t39 -15q24 0 40 15t16 37t-16 37t-40 15zM146 330q-53 0 -89.5 34t-36.5 81q0 31 16.5 57.5t42.5 41.5q-35 25 -35 70
q0 41 29.5 68.5t72.5 27.5q44 0 73.5 -27.5t29.5 -68.5q0 -45 -35 -70q26 -15 42.5 -41.5t16.5 -57.5q0 -47 -37 -81t-90 -34z" />
    <glyph glyph-name="uni2079" unicode="&#x2079;" horiz-adv-x="298" 
d="M226 586q0 34 -22.5 57t-57.5 23q-34 0 -56.5 -23.5t-22.5 -56.5q0 -34 22.5 -57.5t56.5 -23.5q31 0 58 19q22 33 22 62zM85 340l82 124q-9 -3 -26 -3q-49 0 -85 36.5t-36 88.5t36 88t90 36q55 0 91 -36.5t36 -87.5q0 -45 -46 -114l-89 -132h-53z" />
    <glyph glyph-name="uni2080" unicode="&#x2080;" horiz-adv-x="320" 
d="M285 180q0 -85 -30.5 -137.5t-94.5 -52.5t-94.5 52.5t-30.5 137.5t30.5 137.5t94.5 52.5t94.5 -52.5t30.5 -137.5zM82 180q0 -146 78 -146t78 146t-78 146t-78 -146z" />
    <glyph glyph-name="uni2081" unicode="&#x2081;" horiz-adv-x="205" 
d="M103 299l-73 -37v48l93 50h27v-360h-47v299z" />
    <glyph glyph-name="uni2082" unicode="&#x2082;" horiz-adv-x="278" 
d="M70 273l-41 17q26 80 107 80q45 0 76.5 -31t31.5 -75q0 -49 -53 -112l-88 -108h145v-44h-223v24l125 152q19 22 26.5 32t14 25.5t6.5 30.5q0 25 -17.5 43.5t-43.5 18.5q-46 0 -66 -53z" />
    <glyph glyph-name="uni2083" unicode="&#x2083;" horiz-adv-x="282" 
d="M233 336l-79 -100q36 -9 61 -34q37 -37 37 -88t-36 -87.5t-91 -36.5q-36 0 -67 17t-48 44l38 27q11 -20 32.5 -32t44.5 -12q34 0 57 23t23 57q0 37 -25 59.5t-61 22.5q-24 0 -40 -7v24l80 103h-132v44h206v-24z" />
    <glyph glyph-name="uni2084" unicode="&#x2084;" horiz-adv-x="300" 
d="M10 85v24l193 251h27v-231h60v-44h-60v-85h-47v85h-173zM82 129h101v131z" />
    <glyph glyph-name="uni2085" unicode="&#x2085;" horiz-adv-x="260" 
d="M115 240q52 0 88.5 -37t36.5 -88q0 -52 -35.5 -88.5t-89.5 -36.5q-69 0 -105 53l35 27q26 -36 69 -36q35 0 57 23.5t22 57.5t-23 58t-58 24q-29 0 -55 -19l-27 4l19 178h171v-44h-129l-9 -79q15 3 33 3z" />
    <glyph glyph-name="uni2086" unicode="&#x2086;" horiz-adv-x="298" 
d="M67 114q0 -34 22.5 -57t57.5 -23q34 0 56.5 23.5t22.5 56.5q0 34 -22.5 57.5t-56.5 23.5q-31 0 -58 -19q-22 -33 -22 -62zM208 360l-82 -124q9 3 26 3q49 0 85 -36.5t36 -88.5t-36 -88t-90 -36q-55 0 -91 36.5t-36 87.5q0 45 46 114l89 132h53z" />
    <glyph glyph-name="uni2087" unicode="&#x2087;" horiz-adv-x="255" 
d="M75 0h-50l155 316h-165v44h225v-24z" />
    <glyph glyph-name="uni2088" unicode="&#x2088;" horiz-adv-x="293" 
d="M146 179q-34 0 -56.5 -21t-22.5 -53q0 -30 22.5 -50.5t56.5 -20.5q35 0 57 20.5t22 50.5q0 32 -22 53t-57 21zM146 326q-23 0 -39 -15t-16 -37t16 -37t39 -15q24 0 40 15t16 37t-16 37t-40 15zM146 -10q-53 0 -89.5 34t-36.5 81q0 31 16.5 57.5t42.5 41.5q-35 25 -35 70
q0 41 29.5 68.5t72.5 27.5q44 0 73.5 -27.5t29.5 -68.5q0 -45 -35 -70q26 -15 42.5 -41.5t16.5 -57.5q0 -47 -37 -81t-90 -34z" />
    <glyph glyph-name="uni2089" unicode="&#x2089;" horiz-adv-x="298" 
d="M226 246q0 34 -22.5 57t-57.5 23q-34 0 -56.5 -23.5t-22.5 -56.5q0 -34 22.5 -57.5t56.5 -23.5q31 0 58 19q22 33 22 62zM85 0l82 124q-9 -3 -26 -3q-49 0 -85 36.5t-36 88.5t36 88t90 36q55 0 91 -36.5t36 -87.5q0 -45 -46 -114l-89 -132h-53z" />
    <glyph glyph-name="Euro" unicode="&#x20ac;" horiz-adv-x="612" 
d="M5 401v54h81q26 114 102.5 184.5t187.5 70.5q136 0 212 -117l-49 -33q-62 93 -163 93q-87 0 -146.5 -54t-82.5 -144h278v-54h-287q-3 -25 -3 -51t3 -50h287v-54h-277q23 -90 84.5 -144.5t147.5 -54.5q61 0 101.5 21t77.5 71l48 -33q-80 -116 -225 -116q-113 0 -191.5 70
t-104.5 186h-81v54h72q-2 32 -2 50q0 17 2 51h-72z" />
    <glyph glyph-name="trademark" unicode="&#x2122;" horiz-adv-x="837" 
d="M70 700h265v-44h-109v-339h-47v339h-109v44zM720 587l-133 -212h-28l-133 212v-270h-47v383h27l167 -264l167 264h27v-383h-47v270z" />
    <glyph glyph-name="Omega" unicode="&#x2126;" horiz-adv-x="760" 
d="M380 656q-121 0 -207 -86.5t-86 -214.5q0 -59 17 -113.5t40.5 -90.5t47.5 -63.5t41 -40.5l17 -13v-34h-220v54h116q-5 5 -12.5 14t-27.5 39.5t-35.5 63t-28 83t-12.5 101.5q0 148 100 251.5t250 103.5t250 -103.5t100 -251.5q0 -51 -12 -100.5t-29 -84.5t-34 -62t-29 -40
l-12 -14h116v-54h-220v34q7 5 18 13.5t39 39t49.5 65t39 89.5t17.5 114q0 128 -86 214.5t-207 86.5z" />
    <glyph glyph-name="arrowleft" unicode="&#x2190;" horiz-adv-x="727" 
d="M139 274h528v-49h-528l206 -205h-69l-216 215v29l216 215h69z" />
    <glyph glyph-name="arrowright" unicode="&#x2192;" horiz-adv-x="727" 
d="M60 274h528l-206 205h69l216 -215v-29l-216 -215h-69l206 205h-528v49z" />
    <glyph glyph-name="uni2196" unicode="&#x2196;" horiz-adv-x="576" 
d="M109 373v-293l-49 49v307l20 20h307l49 -48h-292l372 -374l-35 -34z" />
    <glyph glyph-name="uni2197" unicode="&#x2197;" horiz-adv-x="576" 
d="M467 80v293l-372 -373l-35 34l372 374h-292l49 48h307l20 -20v-307z" />
    <glyph glyph-name="uni2198" unicode="&#x2198;" horiz-adv-x="576" 
d="M467 83v293l49 -49v-307l-20 -20h-307l-49 48h292l-372 374l35 34z" />
    <glyph glyph-name="uni2199" unicode="&#x2199;" horiz-adv-x="576" 
d="M109 376v-293l372 373l35 -34l-372 -374h292l-49 -48h-307l-20 20v307z" />
    <glyph glyph-name="partialdiff" unicode="&#x2202;" horiz-adv-x="560" 
d="M350 456l-168 254h66l205 -308q62 -95 62 -175q0 -98 -67 -167.5t-168 -69.5t-168 69t-67 169q0 101 67.5 169.5t171.5 68.5q31 0 66 -10zM406 369q-52 43 -122 43q-80 0 -131 -52.5t-51 -131.5q0 -77 50.5 -130.5t127.5 -53.5t127.5 53.5t50.5 130.5q0 81 -52 141z" />
    <glyph glyph-name="Delta" unicode="&#x2206;" horiz-adv-x="579" 
d="M308 700l256 -666v-34h-549v34l256 666h37zM289 594l-209 -540h419z" />
    <glyph glyph-name="product" unicode="&#x220f;" horiz-adv-x="550" 
d="M373 0v646h-196v-646h-57v646h-100v54h510v-54h-100v-646h-57z" />
    <glyph glyph-name="summation" unicode="&#x2211;" horiz-adv-x="555" 
d="M448 510v136h-335l269 -267v-34l-283 -291h359v136h57v-190h-510v34l317 327l-307 305v34h490v-190h-57z" />
    <glyph glyph-name="minus" unicode="&#x2212;" horiz-adv-x="530" 
d="M475 229h-420v54h420v-54z" />
    <glyph glyph-name="uni2215" unicode="&#x2215;" horiz-adv-x="470" 
d="M57 0h-52l408 700h52z" />
    <glyph glyph-name="radical" unicode="&#x221a;" horiz-adv-x="558" 
d="M491 700h57l-244 -700h-37l-160 402h-117v54h153l140 -351z" />
    <glyph glyph-name="infinity" unicode="&#x221e;" horiz-adv-x="750" 
d="M720 277q0 -79 -50.5 -133t-126.5 -54q-60 0 -98.5 33t-69.5 91q-32 -59 -70 -91.5t-98 -32.5q-76 0 -126.5 54t-50.5 133t50.5 133t126.5 54q60 0 98 -33t70 -92q31 59 69.5 92t98.5 33q76 0 126.5 -54t50.5 -133zM207 144q47 0 76 33.5t61 99.5q-16 32 -27 51t-28 40.5
t-37 31.5t-45 10q-52 0 -86 -36.5t-34 -96.5t34.5 -96.5t85.5 -36.5zM663 277q0 60 -34.5 96.5t-85.5 36.5q-47 0 -76.5 -33.5t-60.5 -99.5q20 -43 35 -67.5t42 -45t60 -20.5q51 0 85.5 36.5t34.5 96.5z" />
    <glyph glyph-name="integral" unicode="&#x222b;" horiz-adv-x="511" 
d="M278 520q-23 -118 -46 -297.5t-45 -293.5q-20 -102 -78 -146q-44 -33 -113 -33q-47 0 -86 17l20 52q28 -15 66 -15q59 0 91 32.5t46 103.5q23 118 46 297.5t45 293.5q20 102 78 146q44 33 113 33q47 0 86 -17l-20 -52q-28 15 -66 15q-59 0 -91 -32.5t-46 -103.5z" />
    <glyph glyph-name="approxequal" unicode="&#x2248;" horiz-adv-x="520" 
d="M87 109l-47 23q31 108 122 108q35 0 71 -22t67.5 -44t55.5 -22q51 0 77 77l47 -23q-31 -108 -122 -108q-35 0 -71 22t-67.5 44t-55.5 22q-51 0 -77 -77zM87 283l-47 23q31 108 122 108q35 0 71 -22t67.5 -44t55.5 -22q51 0 77 77l47 -23q-31 -108 -122 -108q-35 0 -71 22
t-67.5 44t-55.5 22q-51 0 -77 -77z" />
    <glyph glyph-name="notequal" unicode="&#x2260;" horiz-adv-x="530" 
d="M423 476l-61 -105h113v-54h-144l-70 -122h214v-54h-245l-60 -105h-63l60 105h-112v54h143l70 122h-213v54h244l61 105h63z" />
    <glyph glyph-name="lessequal" unicode="&#x2264;" horiz-adv-x="530" 
d="M475 26h-420v54h420v-54zM475 149v-58l-420 171v34l420 171v-58l-319 -130z" />
    <glyph glyph-name="greaterequal" unicode="&#x2265;" horiz-adv-x="530" 
d="M475 26h-420v54h420v-54zM55 91v58l319 130l-319 130v58l420 -171v-34z" />
    <glyph glyph-name="lozenge" unicode="&#x25ca;" horiz-adv-x="521" 
d="M279 0h-37l-212 333v34l212 333h37l212 -333v-34zM83 350l177 -279l178 279l-178 278z" />
    <glyph glyph-name="parenleft.ss03" horiz-adv-x="425" 
d="M217 350q0 -175 83 -335l-52 -25q-88 170 -88 360t88 360l52 -25q-83 -160 -83 -335z" />
    <glyph glyph-name="parenright.ss03" horiz-adv-x="425" 
d="M208 350q0 175 -83 335l52 25q88 -170 88 -360t-88 -360l-52 25q83 160 83 335z" />
    <glyph glyph-name="bracketleft.ss03" horiz-adv-x="425" 
d="M160 0v700h225v-54h-168v-592h168v-54h-225z" />
    <glyph glyph-name="bracketright.ss03" horiz-adv-x="425" 
d="M265 700v-700h-225v54h168v592h-168v54h225z" />
    <glyph glyph-name="braceleft.ss03" horiz-adv-x="425" 
d="M174 350q44 -18 44 -80q0 -23 -3.5 -63t-3.5 -59q0 -53 23 -73.5t80 -20.5h21v-54h-25q-157 0 -157 134q0 21 3.5 60.5t3.5 58.5q0 80 -70 80v34q70 0 70 80q0 19 -3.5 58.5t-3.5 60.5q0 134 157 134h25v-54h-21q-57 0 -80 -20.5t-23 -73.5q0 -19 3.5 -59t3.5 -63
q0 -62 -44 -80z" />
    <glyph glyph-name="braceright.ss03" horiz-adv-x="425" 
d="M251 350q-44 18 -44 80q0 23 3.5 63t3.5 59q0 53 -23 73.5t-80 20.5h-21v54h25q157 0 157 -134q0 -21 -3.5 -60.5t-3.5 -58.5q0 -80 70 -80v-34q-70 0 -70 -80q0 -19 3.5 -58.5t3.5 -60.5q0 -134 -157 -134h-25v54h21q57 0 80 20.5t23 73.5q0 19 -3.5 59t-3.5 63
q0 62 44 80z" />
    <glyph glyph-name="bar.ss03" horiz-adv-x="177" 
d="M60 0v700h57v-700h-57z" />
    <glyph glyph-name="zero.tf" 
d="M110 350q0 -303 175 -303t175 303t-175 303t-175 -303zM50 350q0 108 22 186t76 126t137 48t137 -48t76 -126t22 -186t-22 -186t-76 -126t-137 -48t-137 48t-76 126t-22 186z" />
    <glyph glyph-name="one.tf" 
d="M80 57h195v564l-155 -88v60l175 107h40v-643h170v-57h-425v57z" />
    <glyph glyph-name="two.tf" 
d="M129 531l-54 19q16 69 68.5 114.5t126.5 45.5q87 0 143.5 -56t56.5 -141t-82 -184l-225 -272h317v-57h-410v37l268 322q72 86 72 152q0 62 -39 102t-99 40q-55 0 -92.5 -33t-50.5 -89z" />
    <glyph glyph-name="three.tf" 
d="M50 100l48 31q53 -84 162 -84q77 0 125 52t48 126q0 76 -53 127t-133 51q-41 0 -71 -10v37l185 213h-278v57h370v-37l-178 -206q94 -7 156 -73t62 -159q0 -97 -66 -166t-167 -69q-69 0 -123.5 29t-86.5 81z" />
    <glyph glyph-name="four.tf" 
d="M390 0v180h-355v37l375 483h40v-463h115v-57h-115v-180h-60zM124 237h266v343z" />
    <glyph glyph-name="five.tf" 
d="M146 700h330v-57h-280l-29 -206q48 23 98 23q99 0 167 -68.5t68 -166.5q0 -97 -67.5 -166t-165.5 -69q-61 0 -113 28t-84 75l47 32q25 -36 64 -57t85 -21q75 0 124.5 52.5t49.5 125.5q0 74 -51.5 126t-126.5 52q-70 0 -124 -49l-40 6z" />
    <glyph glyph-name="six.tf" 
d="M387 700l-168 -259q33 11 72 11q99 0 164 -67t65 -164q0 -98 -66.5 -164.5t-166.5 -66.5q-99 1 -165.5 67t-66.5 160q0 75 49 151l215 332h68zM287 395q-74 0 -129 -50q-43 -70 -43 -124q0 -73 49.5 -123.5t124.5 -50.5q73 0 122 50t49 124q0 75 -49 124.5t-124 49.5z
" />
    <glyph glyph-name="seven.tf" 
d="M80 643v57h430v-37l-317 -663h-63l308 643h-358z" />
    <glyph glyph-name="eight.tf" 
d="M285 -10q-99 0 -164.5 60.5t-65.5 152.5q0 61 32.5 112t88.5 78q-76 50 -76 141q0 74 53 125t132 51t132 -51t53 -125q0 -91 -76 -141q56 -27 88.5 -78t32.5 -112q0 -92 -65.5 -152.5t-164.5 -60.5zM285 653q-54 0 -89.5 -34.5t-35.5 -84.5q0 -49 35 -83t90 -35
q55 1 90 35t35 83q0 50 -35.5 84.5t-89.5 34.5zM285 47q74 0 122 45t48 111t-48 111t-122 45t-122 -45t-48 -111t48 -111t122 -45z" />
    <glyph glyph-name="nine.tf" 
d="M183 0l168 259q-33 -11 -72 -11q-99 0 -164 67t-65 164q0 98 66.5 164.5t166.5 66.5q99 -1 165.5 -67t66.5 -160q0 -75 -49 -151l-215 -332h-68zM283 305q74 0 129 50q43 70 43 124q0 73 -49.5 123.5t-124.5 50.5q-73 0 -122 -50t-49 -124q0 -75 49 -124.5t124 -49.5z
" />
    <glyph glyph-name="parenleft.case" horiz-adv-x="425" 
d="M217 350q0 -237 138 -427l-46 -33q-149 204 -149 460t149 460l46 -33q-138 -190 -138 -427z" />
    <glyph glyph-name="parenright.case" horiz-adv-x="425" 
d="M208 350q0 237 -138 427l46 33q149 -204 149 -460t-149 -460l-46 33q138 190 138 427z" />
    <glyph glyph-name="bracketleft.case" horiz-adv-x="425" 
d="M160 -100v900h225v-54h-168v-792h168v-54h-225z" />
    <glyph glyph-name="bracketright.case" horiz-adv-x="425" 
d="M265 800v-900h-225v54h168v792h-168v54h225z" />
    <glyph glyph-name="braceleft.case" horiz-adv-x="425" 
d="M174 350q44 -18 44 -88q0 -39 -5.5 -107t-5.5 -99q0 -58 21.5 -80t80.5 -22h26v-54h-30q-84 0 -119.5 37t-35.5 113q0 39 5 110.5t5 105.5q0 36 -17.5 51.5t-52.5 15.5v34q35 0 52.5 15.5t17.5 51.5q0 34 -5 105.5t-5 110.5q0 76 35.5 113t119.5 37h30v-54h-26
q-59 0 -80.5 -22t-21.5 -80q0 -31 5.5 -99t5.5 -107q0 -70 -44 -88z" />
    <glyph glyph-name="braceright.case" horiz-adv-x="425" 
d="M251 350q-44 18 -44 88q0 39 5.5 107t5.5 99q0 58 -21.5 80t-80.5 22h-26v54h30q84 0 119.5 -37t35.5 -113q0 -39 -5 -110.5t-5 -105.5q0 -36 17.5 -51.5t52.5 -15.5v-34q-35 0 -52.5 -15.5t-17.5 -51.5q0 -34 5 -105.5t5 -110.5q0 -76 -35.5 -113t-119.5 -37h-30v54h26
q59 0 80.5 22t21.5 80q0 31 -5.5 99t-5.5 107q0 70 44 88z" />
    <glyph glyph-name="a.ss01" horiz-adv-x="510" 
d="M378 140v58q-53 39 -125 39q-59 0 -97.5 -26.5t-38.5 -73.5q0 -39 31.5 -66t80.5 -27q48 0 87 26.5t62 69.5zM227 -10q-73 0 -120 43.5t-47 103.5q0 73 56.5 113.5t129.5 40.5q45 0 81 -11t51 -21v7q0 63 -25 96q-38 50 -106 50q-72 0 -128 -48l-33 46q65 56 161 56
q100 0 152 -71q36 -49 36 -132v-263h-55v62q-25 -32 -66 -52t-87 -20z" />
    <glyph glyph-name="zero.tf.zero" 
d="M50 350q0 108 22 186t76 126t137 48t137 -48t76 -126t22 -186t-22 -186t-76 -126t-137 -48t-137 48t-76 126t-22 186zM460 350q0 122 -30 196l-259 -448q43 -51 114 -51q175 0 175 303zM110 350q0 -123 29 -195l259 447q-43 51 -113 51q-175 0 -175 -303z" />
    <glyph glyph-name="endash.ss04" horiz-adv-x="1050" 
d="M20 274h1010v-49h-1010v49z" />
    <glyph glyph-name="periodcentered.case" horiz-adv-x="304" 
d="M100 350q0 22 15 37t37 15t37 -15t15 -37t-15 -37t-37 -15t-37 15t-15 37z" />
    <glyph glyph-name="bullet.case" horiz-adv-x="520" 
d="M80 350q0 74 53 127t127 53t127 -53t53 -127t-53 -127t-127 -53t-127 53t-53 127z" />
    <glyph glyph-name="asterisk.ss05" horiz-adv-x="494" 
d="M222 300v157l-136 -79l-24 43l137 79l-137 79l24 43l136 -79v157h50v-157l136 79l24 -43l-137 -79l137 -79l-24 -43l-136 79v-157h-50z" />
    <glyph glyph-name="zero.zero" horiz-adv-x="590" 
d="M60 350q0 108 22 186t76 126t137 48t137 -48t76 -126t22 -186t-22 -186t-76 -126t-137 -48t-137 48t-76 126t-22 186zM470 350q0 122 -30 196l-259 -448q43 -51 114 -51q175 0 175 303zM120 350q0 -123 29 -195l259 447q-43 51 -113 51q-175 0 -175 -303z" />
    <glyph glyph-name="uni2070.zero" horiz-adv-x="320" 
d="M285 520q0 -85 -30.5 -137.5t-94.5 -52.5t-94.5 52.5t-30.5 137.5t30.5 137.5t94.5 52.5t94.5 -52.5t30.5 -137.5zM82 520q0 -46 8 -77l116 202q-18 21 -46 21q-78 0 -78 -146zM238 520q0 42 -9 77l-115 -203q17 -20 46 -20q78 0 78 146z" />
    <glyph glyph-name="uni2080.zero" horiz-adv-x="320" 
d="M285 180q0 -85 -30.5 -137.5t-94.5 -52.5t-94.5 52.5t-30.5 137.5t30.5 137.5t94.5 52.5t94.5 -52.5t30.5 -137.5zM82 180q0 -46 8 -77l116 202q-18 21 -46 21q-78 0 -78 -146zM238 180q0 42 -9 77l-115 -203q17 -20 46 -20q78 0 78 146z" />
    <glyph glyph-name="emdash.ss04" horiz-adv-x="1350" 
d="M20 274h1310v-49h-1310v49z" />
    <glyph glyph-name="currency.tf" 
d="M89 351q0 64 41 118l-75 75l37 37l75 -75q54 41 118 41q65 0 119 -41l74 75l37 -37l-74 -75q40 -53 40 -118q0 -66 -40 -119l74 -74l-37 -37l-74 74q-53 -40 -119 -40q-65 0 -118 40l-75 -74l-37 37l75 74q-41 54 -41 119zM146 351q0 -58 40.5 -98.5t98.5 -40.5
t98.5 40.5t40.5 98.5t-40.5 98.5t-98.5 40.5t-98.5 -40.5t-40.5 -98.5z" />
    <glyph glyph-name="hyphen.case" horiz-adv-x="420" 
d="M80 412h260v-49h-260v49z" />
    <glyph glyph-name="endash.case" horiz-adv-x="450" 
d="M20 412h410v-49h-410v49z" />
    <glyph glyph-name="emdash.case" horiz-adv-x="750" 
d="M20 412h710v-49h-710v49z" />
    <glyph glyph-name="endash.case.ss04" horiz-adv-x="1050" 
d="M20 412h1010v-49h-1010v49z" />
    <glyph glyph-name="emdash.case.ss04" horiz-adv-x="1350" 
d="M20 412h1310v-49h-1310v49z" />
    <glyph glyph-name="guillemotleft.case" horiz-adv-x="535" 
d="M424 518h71l-158 -185l158 -185h-71l-144 168v34zM224 518h71l-158 -185l158 -185h-71l-144 168v34z" />
    <glyph glyph-name="guillemotright.case" horiz-adv-x="535" 
d="M40 518h71l144 -168v-34l-144 -168h-71l158 185zM240 518h71l144 -168v-34l-144 -168h-71l158 185z" />
    <glyph glyph-name="guilsinglleft.case" horiz-adv-x="335" 
d="M224 518h71l-158 -185l158 -185h-71l-144 168v34z" />
    <glyph glyph-name="guilsinglright.case" horiz-adv-x="335" 
d="M40 518h71l144 -168v-34l-144 -168h-71l158 185z" />
    <glyph glyph-name="bar.case" horiz-adv-x="177" 
d="M60 -100v900h57v-900h-57z" />
    <glyph glyph-name="aacute.ss01" horiz-adv-x="510" 
d="M291 670h75l-95 -140h-45zM378 140v58q-53 39 -125 39q-59 0 -97.5 -26.5t-38.5 -73.5q0 -39 31.5 -66t80.5 -27q48 0 87 26.5t62 69.5zM227 -10q-73 0 -120 43.5t-47 103.5q0 73 56.5 113.5t129.5 40.5q45 0 81 -11t51 -21v7q0 63 -25 96q-38 50 -106 50q-72 0 -128 -48
l-33 46q65 56 161 56q100 0 152 -71q36 -49 36 -132v-263h-55v62q-25 -32 -66 -52t-87 -20z" />
    <glyph glyph-name="agrave.ss01" horiz-adv-x="510" 
d="M159 670h75l65 -140h-45zM378 140v58q-53 39 -125 39q-59 0 -97.5 -26.5t-38.5 -73.5q0 -39 31.5 -66t80.5 -27q48 0 87 26.5t62 69.5zM227 -10q-73 0 -120 43.5t-47 103.5q0 73 56.5 113.5t129.5 40.5q45 0 81 -11t51 -21v7q0 63 -25 96q-38 50 -106 50q-72 0 -128 -48
l-33 46q65 56 161 56q100 0 152 -71q36 -49 36 -132v-263h-55v62q-25 -32 -66 -52t-87 -20z" />
    <glyph glyph-name="acircumflex.ss01" horiz-adv-x="510" 
d="M260 624l-85 -94h-45l95 140h70l95 -140h-45zM378 140v58q-53 39 -125 39q-59 0 -97.5 -26.5t-38.5 -73.5q0 -39 31.5 -66t80.5 -27q48 0 87 26.5t62 69.5zM227 -10q-73 0 -120 43.5t-47 103.5q0 73 56.5 113.5t129.5 40.5q45 0 81 -11t51 -21v7q0 63 -25 96
q-38 50 -106 50q-72 0 -128 -48l-33 46q65 56 161 56q100 0 152 -71q36 -49 36 -132v-263h-55v62q-25 -32 -66 -52t-87 -20z" />
    <glyph glyph-name="adieresis.ss01" horiz-adv-x="510" 
d="M288 594q0 21 14.5 36t35.5 15t36 -15t15 -36t-15 -35.5t-36 -14.5t-35.5 14.5t-14.5 35.5zM125 594q0 21 14.5 36t35.5 15t36 -15t15 -36t-15 -35.5t-36 -14.5t-35.5 14.5t-14.5 35.5zM378 140v58q-53 39 -125 39q-59 0 -97.5 -26.5t-38.5 -73.5q0 -39 31.5 -66
t80.5 -27q48 0 87 26.5t62 69.5zM227 -10q-73 0 -120 43.5t-47 103.5q0 73 56.5 113.5t129.5 40.5q45 0 81 -11t51 -21v7q0 63 -25 96q-38 50 -106 50q-72 0 -128 -48l-33 46q65 56 161 56q100 0 152 -71q36 -49 36 -132v-263h-55v62q-25 -32 -66 -52t-87 -20z" />
    <glyph glyph-name="atilde.ss01" horiz-adv-x="510" 
d="M160 556l-40 11q1 33 20.5 58t53.5 25q27 0 67 -22.5t57 -22.5q33 0 36 45l40 -11q-1 -33 -20.5 -58t-53.5 -25q-27 0 -67 22.5t-57 22.5q-33 0 -36 -45zM378 140v58q-53 39 -125 39q-59 0 -97.5 -26.5t-38.5 -73.5q0 -39 31.5 -66t80.5 -27q48 0 87 26.5t62 69.5z
M227 -10q-73 0 -120 43.5t-47 103.5q0 73 56.5 113.5t129.5 40.5q45 0 81 -11t51 -21v7q0 63 -25 96q-38 50 -106 50q-72 0 -128 -48l-33 46q65 56 161 56q100 0 152 -71q36 -49 36 -132v-263h-55v62q-25 -32 -66 -52t-87 -20z" />
    <glyph glyph-name="aring.ss01" horiz-adv-x="510" 
d="M167 610q0 38 26.5 64t63.5 26t63.5 -26t26.5 -64t-26.5 -64t-63.5 -26t-63.5 26t-26.5 64zM207 610q0 -21 14.5 -35.5t35.5 -14.5t35.5 14.5t14.5 35.5t-14.5 35.5t-35.5 14.5t-35.5 -14.5t-14.5 -35.5zM378 140v58q-53 39 -125 39q-59 0 -97.5 -26.5t-38.5 -73.5
q0 -39 31.5 -66t80.5 -27q48 0 87 26.5t62 69.5zM227 -10q-73 0 -120 43.5t-47 103.5q0 73 56.5 113.5t129.5 40.5q45 0 81 -11t51 -21v7q0 63 -25 96q-38 50 -106 50q-72 0 -128 -48l-33 46q65 56 161 56q100 0 152 -71q36 -49 36 -132v-263h-55v62q-25 -32 -66 -52
t-87 -20z" />
    <glyph glyph-name="ae.ss01" horiz-adv-x="853" 
d="M753 112l40 -38q-28 -36 -76.5 -60t-109.5 -24q-106 0 -172 80v-70h-55v62q-25 -32 -66 -52t-87 -20q-73 0 -120 43.5t-47 103.5q0 73 56.5 113.5t129.5 40.5q45 0 81 -11t51 -21v7q0 63 -25 96q-38 50 -106 50q-72 0 -128 -48l-33 46q65 56 161 56q100 0 152 -71
q8 -12 17 -31q28 48 75 75t105 27q91 0 151.5 -64t60.5 -159q0 -11 -1 -20h-372q3 -76 49.5 -127.5t122.5 -51.5q90 0 146 68zM378 140v58q-53 39 -125 39q-59 0 -97.5 -26.5t-38.5 -73.5q0 -39 31.5 -66t80.5 -27q48 0 87 26.5t62 69.5zM596 412q-60 0 -102.5 -38
t-55.5 -99h311q-9 60 -51.5 98.5t-101.5 38.5z" />
    <glyph glyph-name="zero.dnom" horiz-adv-x="310" 
d="M280 180q0 -85 -30.5 -137.5t-94.5 -52.5t-94.5 52.5t-30.5 137.5t30.5 137.5t94.5 52.5t94.5 -52.5t30.5 -137.5zM77 180q0 -146 78 -146t78 146t-78 146t-78 -146z" />
    <glyph glyph-name="one.dnom" horiz-adv-x="205" 
d="M103 299l-73 -37v48l93 50h27v-360h-47v299z" />
    <glyph glyph-name="two.dnom" horiz-adv-x="278" 
d="M70 273l-41 17q26 80 107 80q45 0 76.5 -31t31.5 -75q0 -49 -53 -112l-88 -108h145v-44h-223v24l125 152q19 22 26.5 32t14 25.5t6.5 30.5q0 25 -17.5 43.5t-43.5 18.5q-46 0 -66 -53z" />
    <glyph glyph-name="three.dnom" horiz-adv-x="282" 
d="M233 336l-79 -100q36 -9 61 -34q37 -37 37 -88t-36 -87.5t-91 -36.5q-36 0 -67 17t-48 44l38 27q11 -20 32.5 -32t44.5 -12q34 0 57 23t23 57q0 37 -25 59.5t-61 22.5q-24 0 -40 -7v24l80 103h-132v44h206v-24z" />
    <glyph glyph-name="four.dnom" horiz-adv-x="300" 
d="M10 85v24l193 251h27v-231h60v-44h-60v-85h-47v85h-173zM82 129h101v131z" />
    <glyph glyph-name="five.dnom" horiz-adv-x="260" 
d="M115 240q52 0 88.5 -37t36.5 -88q0 -52 -35.5 -88.5t-89.5 -36.5q-69 0 -105 53l35 27q26 -36 69 -36q35 0 57 23.5t22 57.5t-23 58t-58 24q-29 0 -55 -19l-27 4l19 178h171v-44h-129l-9 -79q15 3 33 3z" />
    <glyph glyph-name="six.dnom" horiz-adv-x="298" 
d="M67 114q0 -34 22.5 -57t57.5 -23q34 0 56.5 23.5t22.5 56.5q0 34 -22.5 57.5t-56.5 23.5q-31 0 -58 -19q-22 -33 -22 -62zM208 360l-82 -124q9 3 26 3q49 0 85 -36.5t36 -88.5t-36 -88t-90 -36q-55 0 -91 36.5t-36 87.5q0 45 46 114l89 132h53z" />
    <glyph glyph-name="seven.dnom" horiz-adv-x="255" 
d="M75 0h-50l155 316h-165v44h225v-24z" />
    <glyph glyph-name="eight.dnom" horiz-adv-x="293" 
d="M146 179q-34 0 -56.5 -21t-22.5 -53q0 -30 22.5 -50.5t56.5 -20.5q35 0 57 20.5t22 50.5q0 32 -22 53t-57 21zM146 326q-23 0 -39 -15t-16 -37t16 -37t39 -15q24 0 40 15t16 37t-16 37t-40 15zM146 -10q-53 0 -89.5 34t-36.5 81q0 31 16.5 57.5t42.5 41.5q-35 25 -35 70
q0 41 29.5 68.5t72.5 27.5q44 0 73.5 -27.5t29.5 -68.5q0 -45 -35 -70q26 -15 42.5 -41.5t16.5 -57.5q0 -47 -37 -81t-90 -34z" />
    <glyph glyph-name="nine.dnom" horiz-adv-x="298" 
d="M226 246q0 34 -22.5 57t-57.5 23q-34 0 -56.5 -23.5t-22.5 -56.5q0 -34 22.5 -57.5t56.5 -23.5q31 0 58 19q22 33 22 62zM85 0l82 124q-9 -3 -26 -3q-49 0 -85 36.5t-36 88.5t36 88t90 36q55 0 91 -36.5t36 -87.5q0 -45 -46 -114l-89 -132h-53z" />
    <glyph glyph-name="zero.numr" horiz-adv-x="320" 
d="M285 520q0 -85 -30.5 -137.5t-94.5 -52.5t-94.5 52.5t-30.5 137.5t30.5 137.5t94.5 52.5t94.5 -52.5t30.5 -137.5zM82 520q0 -146 78 -146t78 146t-78 146t-78 -146z" />
    <glyph glyph-name="one.numr" horiz-adv-x="205" 
d="M103 639l-73 -37v48l93 50h27v-360h-47v299z" />
    <glyph glyph-name="two.numr" horiz-adv-x="278" 
d="M70 613l-41 17q26 80 107 80q45 0 76.5 -31t31.5 -75q0 -49 -53 -112l-88 -108h145v-44h-223v24l125 152q19 22 26.5 32t14 25.5t6.5 30.5q0 25 -17.5 43.5t-43.5 18.5q-46 0 -66 -53z" />
    <glyph glyph-name="three.numr" horiz-adv-x="282" 
d="M233 676l-79 -100q36 -9 61 -34q37 -37 37 -88t-36 -87.5t-91 -36.5q-36 0 -67 17t-48 44l38 27q11 -20 32.5 -32t44.5 -12q34 0 57 23t23 57q0 37 -25 59.5t-61 22.5q-24 0 -40 -7v24l80 103h-132v44h206v-24z" />
    <glyph glyph-name="four.numr" horiz-adv-x="300" 
d="M10 425v24l193 251h27v-231h60v-44h-60v-85h-47v85h-173zM82 469h101v131z" />
    <glyph glyph-name="five.numr" horiz-adv-x="260" 
d="M115 580q52 0 88.5 -37t36.5 -88q0 -52 -35.5 -88.5t-89.5 -36.5q-69 0 -105 53l35 27q26 -36 69 -36q35 0 57 23.5t22 57.5t-23 58t-58 24q-29 0 -55 -19l-27 4l19 178h171v-44h-129l-9 -79q15 3 33 3z" />
    <glyph glyph-name="six.numr" horiz-adv-x="298" 
d="M67 454q0 -34 22.5 -57t57.5 -23q34 0 56.5 23.5t22.5 56.5q0 34 -22.5 57.5t-56.5 23.5q-31 0 -58 -19q-22 -33 -22 -62zM208 700l-82 -124q9 3 26 3q49 0 85 -36.5t36 -88.5t-36 -88t-90 -36q-55 0 -91 36.5t-36 87.5q0 45 46 114l89 132h53z" />
    <glyph glyph-name="seven.numr" horiz-adv-x="255" 
d="M75 340h-50l155 316h-165v44h225v-24z" />
    <glyph glyph-name="eight.numr" horiz-adv-x="293" 
d="M146 519q-34 0 -56.5 -21t-22.5 -53q0 -30 22.5 -50.5t56.5 -20.5q35 0 57 20.5t22 50.5q0 32 -22 53t-57 21zM146 666q-23 0 -39 -15t-16 -37t16 -37t39 -15q24 0 40 15t16 37t-16 37t-40 15zM146 330q-53 0 -89.5 34t-36.5 81q0 31 16.5 57.5t42.5 41.5q-35 25 -35 70
q0 41 29.5 68.5t72.5 27.5q44 0 73.5 -27.5t29.5 -68.5q0 -45 -35 -70q26 -15 42.5 -41.5t16.5 -57.5q0 -47 -37 -81t-90 -34z" />
    <glyph glyph-name="nine.numr" horiz-adv-x="298" 
d="M226 586q0 34 -22.5 57t-57.5 23q-34 0 -56.5 -23.5t-22.5 -56.5q0 -34 22.5 -57.5t56.5 -23.5q31 0 58 19q22 33 22 62zM85 340l82 124q-9 -3 -26 -3q-49 0 -85 36.5t-36 88.5t36 88t90 36q55 0 91 -36.5t36 -87.5q0 -45 -46 -114l-89 -132h-53z" />
    <glyph glyph-name="zero.dnom.zero" horiz-adv-x="320" 
d="M285 180q0 -85 -30.5 -137.5t-94.5 -52.5t-94.5 52.5t-30.5 137.5t30.5 137.5t94.5 52.5t94.5 -52.5t30.5 -137.5zM82 180q0 -46 8 -77l116 202q-18 21 -46 21q-78 0 -78 -146zM238 180q0 42 -9 77l-115 -203q17 -20 46 -20q78 0 78 146z" />
    <glyph glyph-name="zero.numr.zero" horiz-adv-x="320" 
d="M285 520q0 -85 -30.5 -137.5t-94.5 -52.5t-94.5 52.5t-30.5 137.5t30.5 137.5t94.5 52.5t94.5 -52.5t30.5 -137.5zM82 520q0 -46 8 -77l116 202q-18 21 -46 21q-78 0 -78 -146zM238 520q0 42 -9 77l-115 -203q17 -20 46 -20q78 0 78 146z" />
    <glyph glyph-name="minus.tf" 
d="M495 229h-420v54h420v-54z" />
    <glyph glyph-name="multiply.tf" 
d="M436 67l-151 151l-151 -151l-38 38l151 151l-151 151l38 38l151 -151l151 151l38 -38l-151 -151l151 -151z" />
    <glyph glyph-name="numbersign.tf" 
d="M521 700l-60 -220h99v-54h-113l-40 -152h99v-54h-114l-59 -220h-57l60 220h-170l-60 -220h-57l60 220h-99v54h113l40 152h-99v54h114l59 220h57l-59 -220h170l59 220h57zM220 426l-40 -152h170l40 152h-170z" />
    <glyph glyph-name="dollar.tf" 
d="M64 108l44 39q77 -100 188 -100q56 0 100 36.5t44 94.5q0 44 -26.5 77t-59.5 48.5t-85.5 38.5t-80.5 40q-95 58 -95 144q0 72 46.5 122t119.5 60v107h57v-106q84 -8 155 -69l-38 -44q-65 57 -139 57q-60 0 -100.5 -34t-40.5 -90q0 -37 25 -65t56.5 -42t81 -35.5
t78.5 -39.5q106 -66 106 -169q0 -77 -52 -128.5t-132 -58.5v-106h-57v107q-118 14 -195 116z" />
    <glyph glyph-name="plus.tf" 
d="M495 229h-183v-183h-54v183h-183v54h183v183h54v-183h183v-54z" />
    <glyph glyph-name="less.tf" 
d="M495 123v-58l-420 174v34l420 174v-58l-323 -133z" />
    <glyph glyph-name="equal.tf" 
d="M495 317h-420v54h420v-54zM495 141h-420v54h420v-54z" />
    <glyph glyph-name="greater.tf" 
d="M75 65v58l323 133l-323 133v58l420 -174v-34z" />
    <glyph glyph-name="cent.tf" 
d="M457 107l41 -38q-63 -70 -160 -78v-106h-57v108q-88 13 -148 76.5t-60 158.5q0 90 58.5 158t149.5 78v117h57v-117q82 -8 145 -69l-36 -41q-60 58 -138 58q-73 0 -126 -53.5t-53 -130.5t53.5 -130.5t133.5 -53.5t140 63z" />
    <glyph glyph-name="sterling.tf" 
d="M85 337v54h84q-38 88 -38 135q0 81 52.5 132t130.5 52q58 0 100.5 -28t65.5 -67l-46 -32q-42 73 -120 73q-47 0 -86.5 -33.5t-39.5 -96.5q0 -10 2 -22t4 -20.5t8 -23t8.5 -21t10.5 -25t10 -23.5h128v-54h-108q17 -51 17 -95q0 -108 -74 -188h321v-54h-450v34
q64 24 105 80t41 129q0 39 -20 94h-106z" />
    <glyph glyph-name="section.tf" 
d="M515 207q0 -93 -81 -150q44 -41 44 -109q0 -78 -58 -128t-141 -50q-99 0 -179 70l37 43q64 -56 140 -56q59 0 100 33.5t41 87.5q0 28 -12 49t-37 36.5t-47 24t-59 20.5q-37 11 -60.5 20t-54.5 26t-49 36t-31 48t-13 65q0 92 81 149q-44 42 -44 110q0 78 58 128t141 50
q99 0 179 -70l-37 -43q-64 56 -140 56q-59 0 -100 -33.5t-41 -87.5q0 -28 12 -49t37 -36.5t47 -24t59 -20.5q37 -11 60.5 -20t54.5 -26t49 -36t31 -48t13 -65zM314 340q-97 32 -125 46q-75 -43 -75 -113q0 -50 37.5 -79.5t104.5 -53.5q95 -32 124 -47q76 43 76 114
q0 50 -38 80.5t-104 52.5z" />
    <glyph glyph-name="notequal.tf" 
d="M443 476l-61 -105h113v-54h-144l-70 -122h214v-54h-245l-60 -105h-63l60 105h-112v54h143l70 122h-213v54h244l61 105h63z" />
    <glyph glyph-name="plusminus.tf" 
d="M495 271h-183v-161h-54v161h-183v54h183v161h54v-161h183v-54zM495 26h-420v54h420v-54z" />
    <glyph glyph-name="lessequal.tf" 
d="M495 26h-420v54h420v-54zM495 149v-58l-420 171v34l420 171v-58l-319 -130z" />
    <glyph glyph-name="greaterequal.tf" 
d="M495 26h-420v54h420v-54zM75 91v58l319 130l-319 130v58l420 -171v-34z" />
    <glyph glyph-name="yen.tf" 
d="M555 700l-159 -245h109v-54h-144l-46 -72v-29h190v-54h-190v-246h-60v246h-190v54h190v29l-47 72h-143v54h108l-158 245h68l202 -313l202 313h68z" />
    <glyph glyph-name="mu.tf" horiz-adv-x="590" 
d="M290 -10q-91 0 -141 65v-295h-57v696h57v-234q0 -79 26 -118q40 -60 115 -60q46 0 87.5 26t64.5 69v317h57v-456h-55v62q-25 -32 -66.5 -52t-87.5 -20z" />
    <glyph glyph-name="partialdiff.tf" 
d="M355 456l-168 254h66l205 -308q62 -95 62 -175q0 -98 -67 -167.5t-168 -69.5t-168 69t-67 169q0 101 67.5 169.5t171.5 68.5q31 0 66 -10zM411 369q-52 43 -122 43q-80 0 -131 -52.5t-51 -131.5q0 -77 50.5 -130.5t127.5 -53.5t127.5 53.5t50.5 130.5q0 81 -52 141z" />
    <glyph glyph-name="summation.tf" 
d="M473 510v136h-335l269 -267v-34l-283 -291h359v136h57v-190h-510v34l317 327l-307 305v34h490v-190h-57z" />
    <glyph glyph-name="product.tf" 
d="M383 0v646h-196v-646h-57v646h-100v54h510v-54h-100v-646h-57z" />
    <glyph glyph-name="pi.tf" 
d="M73 327l-48 29q35 58 93 82q44 18 106 18h321v-54h-100v-271q0 -36 8 -57q9 -22 32 -39l-32 -45q-35 28 -50 58q-15 32 -15 92v262h-156v-402h-57v397q-63 -5 -102 -70z" />
    <glyph glyph-name="integral.tf" 
d="M300 520q-23 -118 -46 -297.5t-45 -293.5q-20 -102 -78 -146q-44 -33 -113 -33q-47 0 -86 17l20 52q28 -15 66 -15q59 0 91 32.5t46 103.5q23 118 46 297.5t45 293.5q20 102 78 146q43 33 113 33q47 0 86 -17l-20 -52q-28 15 -66 15q-59 0 -91 -32.5t-46 -103.5z" />
    <glyph glyph-name="logicalnot.tf" 
d="M441 141v176h-366v54h420v-230h-54z" />
    <glyph glyph-name="radical.tf" 
d="M493 700h57l-244 -700h-37l-160 402h-117v54h153l140 -351z" />
    <glyph glyph-name="florin.tf" 
d="M300 520q-17 -88 -23 -129h157v-54h-165q-6 -40 -16 -121t-20 -147.5t-24 -139.5q-20 -102 -78 -146q-44 -33 -113 -33q-47 0 -86 17l20 52q28 -15 66 -15q59 0 91 32.5t46 103.5q14 72 24 136.5t20 145.5t15 115h-143v54h150q12 74 25 140q20 102 78 146q43 33 113 33
q47 0 86 -17l-20 -52q-28 15 -66 15q-59 0 -91 -32.5t-46 -103.5z" />
    <glyph glyph-name="asciicircum.tf" 
d="M89 350l177 350h37l177 -350h-59l-137 266l-136 -266h-59z" />
    <glyph glyph-name="asciitilde.tf" 
d="M112 196l-47 23q31 108 122 108q35 0 71 -22t67.5 -44t55.5 -22q51 0 77 77l47 -23q-31 -108 -122 -108q-35 0 -71 22t-68 44t-55 22q-51 0 -77 -77z" />
    <glyph glyph-name="approxequal.tf" 
d="M112 109l-47 23q31 108 122 108q35 0 71 -22t68 -44t55 -22q51 0 77 77l47 -23q-31 -108 -122 -108q-35 0 -71 22t-68 44t-55 22q-51 0 -77 -77zM112 283l-47 23q31 108 122 108q35 0 71 -22t67.5 -44t55.5 -22q51 0 77 77l47 -23q-31 -108 -122 -108q-35 0 -71 22
t-67.5 44t-55.5 22q-51 0 -77 -77z" />
    <glyph glyph-name="Delta.tf" 
d="M303 700l256 -666v-34h-549v34l256 666h37zM284 594l-209 -540h419z" />
    <glyph glyph-name="Euro.tf" 
d="M-10 401v54h81q26 114 102.5 184.5t187.5 70.5q136 0 212 -117l-49 -33q-61 93 -163 93q-87 0 -146.5 -54t-82.5 -144h278v-54h-287q-3 -25 -3 -51t3 -50h287v-54h-277q23 -90 84.5 -144.5t147.5 -54.5q61 0 101.5 21t77.5 71l48 -33q-80 -116 -225 -116
q-113 0 -191.5 70t-104.5 186h-81v54h72q-2 32 -2 50q0 17 2 51h-72z" />
    <glyph glyph-name="lozenge.tf" 
d="M303 0h-37l-212 333v34l212 333h37l212 -333v-34zM107 350l177 -279l178 279l-178 278z" />
    <glyph glyph-name="divide.tf" 
d="M495 229h-420v54h420v-54zM235 426q0 21 14.5 35.5t35.5 14.5t35.5 -14.5t14.5 -35.5t-14.5 -35.5t-35.5 -14.5t-35.5 14.5t-14.5 35.5zM235 86q0 21 14.5 35.5t35.5 14.5t35.5 -14.5t14.5 -35.5t-14.5 -35.5t-35.5 -14.5t-35.5 14.5t-14.5 35.5z" />
    <glyph glyph-name="quotedbl.tf" 
d="M170 446l-10 254h57l-10 -254h-37zM363 446l-10 254h57l-10 -254h-37z" />
    <glyph glyph-name="quotesingle.tf" 
d="M267 446l-10 254h57l-10 -254h-37z" />
    <glyph glyph-name="at.case" horiz-adv-x="1000" 
d="M624 272v156q-17 35 -52 59t-81 24q-65 0 -111 -46t-46 -115q0 -68 45.5 -114.5t111.5 -46.5q47 0 81.5 23.5t51.5 59.5zM636 204q-50 -69 -145 -69q-78 0 -137 47q-77 61 -77 168t77 168q59 47 137 47q84 0 133 -58v48h57v-274q0 -92 78 -92q56 0 85 51t29 133
q0 165 -107 264t-266 99q-154 0 -263.5 -113t-109.5 -273q0 -161 112 -273.5t269 -112.5q121 0 221 77l31 -47q-109 -84 -253 -84q-181 0 -309 129t-128 311t128 311t309 129q179 0 301 -116t122 -301q0 -102 -45.5 -170t-126.5 -68q-90 0 -122 69z" />
    <glyph glyph-name="amacron.ss01" horiz-adv-x="510" 
d="M123 626h280v-50h-280v50zM378 140v58q-53 39 -125 39q-59 0 -97.5 -26.5t-38.5 -73.5q0 -39 31.5 -66t80.5 -27q48 0 87 26.5t62 69.5zM227 -10q-73 0 -120 43.5t-47 103.5q0 73 56.5 113.5t129.5 40.5q45 0 81 -11t51 -21v7q0 63 -25 96q-38 50 -106 50q-72 0 -128 -48
l-33 46q65 56 161 56q100 0 152 -71q36 -49 36 -132v-263h-55v62q-25 -32 -66 -52t-87 -20z" />
    <glyph glyph-name="abreve.ss01" horiz-adv-x="510" 
d="M342 680h50q0 -52 -36.5 -88.5t-88.5 -36.5t-88.5 36.5t-36.5 88.5h50q0 -31 22 -53t53 -22t53 22t22 53zM378 140v58q-53 39 -125 39q-59 0 -97.5 -26.5t-38.5 -73.5q0 -39 31.5 -66t80.5 -27q48 0 87 26.5t62 69.5zM227 -10q-73 0 -120 43.5t-47 103.5q0 73 56.5 113.5
t129.5 40.5q45 0 81 -11t51 -21v7q0 63 -25 96q-38 50 -106 50q-72 0 -128 -48l-33 46q65 56 161 56q100 0 152 -71q36 -49 36 -132v-263h-55v62q-25 -32 -66 -52t-87 -20z" />
    <glyph glyph-name="aogonek.ss01" horiz-adv-x="510" 
d="M378 140v58q-53 39 -125 39q-59 0 -97.5 -26.5t-38.5 -73.5q0 -39 31.5 -66t80.5 -27q48 0 87 26.5t62 69.5zM380 4v58q-25 -32 -66 -52t-87 -20q-73 0 -120 43.5t-47 103.5q0 73 56.5 113.5t129.5 40.5q45 0 81 -11t51 -21v7q0 63 -25 96q-38 50 -106 50q-72 0 -128 -48
l-33 46q65 56 161 56q100 0 152 -71q36 -49 36 -132v-263q-32 -45 -32 -97q0 -38 19 -54t45 -16q17 0 40 5l10 -49q-21 -9 -55 -9q-53 0 -84 33.5t-31 84.5q0 58 33 106z" />
    <glyph glyph-name="aringacute.ss01" horiz-adv-x="510" 
d="M301 874h75l-95 -140h-45zM167 610q0 38 26.5 64t63.5 26t63.5 -26t26.5 -64t-26.5 -64t-63.5 -26t-63.5 26t-26.5 64zM207 610q0 -21 14.5 -35.5t35.5 -14.5t35.5 14.5t14.5 35.5t-14.5 35.5t-35.5 14.5t-35.5 -14.5t-14.5 -35.5zM378 140v58q-53 39 -125 39
q-59 0 -97.5 -26.5t-38.5 -73.5q0 -39 31.5 -66t80.5 -27q48 0 87 26.5t62 69.5zM227 -10q-73 0 -120 43.5t-47 103.5q0 73 56.5 113.5t129.5 40.5q45 0 81 -11t51 -21v7q0 63 -25 96q-38 50 -106 50q-72 0 -128 -48l-33 46q65 56 161 56q100 0 152 -71q36 -49 36 -132v-263
h-55v62q-25 -32 -66 -52t-87 -20z" />
    <glyph glyph-name="aeacute.ss01" horiz-adv-x="853" 
d="M443 670h75l-95 -140h-45zM753 112l40 -38q-28 -36 -76.5 -60t-109.5 -24q-106 0 -172 80v-70h-55v62q-25 -32 -66 -52t-87 -20q-73 0 -120 43.5t-47 103.5q0 73 56.5 113.5t129.5 40.5q45 0 81 -11t51 -21v7q0 63 -25 96q-38 50 -106 50q-72 0 -128 -48l-33 46
q65 56 161 56q100 0 152 -71q8 -12 17 -31q28 48 75 75t105 27q91 0 151.5 -64t60.5 -159q0 -11 -1 -20h-372q3 -76 49.5 -127.5t122.5 -51.5q90 0 146 68zM378 140v58q-53 39 -125 39q-59 0 -97.5 -26.5t-38.5 -73.5q0 -39 31.5 -66t80.5 -27q48 0 87 26.5t62 69.5z
M596 412q-60 0 -102.5 -38t-55.5 -99h311q-9 60 -51.5 98.5t-101.5 38.5z" />
    <glyph glyph-name="asterisk.ss06" horiz-adv-x="494" 
d="M285 521l168 -53l-16 -47l-166 54v-175h-50v175l-166 -54l-15 47l165 55l-102 140l40 29l103 -141l102 141l40 -29z" />
    <glyph glyph-name="asterisk.ss07" horiz-adv-x="494" 
d="M447 475h-157l79 -136l-43 -24l-79 137l-79 -137l-43 24l79 136h-157v50h157l-79 136l43 24l79 -137l79 137l43 -24l-79 -136h157v-50z" />
    <glyph glyph-name="asterisk.ss08" horiz-adv-x="494" 
d="M247 452l-79 -137l-43 24l79 136zM447 475h-157v50h157v-50zM369 661l-79 -136l-43 23l79 137zM204 525l-79 136l43 24l79 -137zM47 525h157v-50h-157v50zM290 475l79 -136l-43 -24l-79 137z" />
    <glyph glyph-name="asterisk.ss09" horiz-adv-x="494" 
d="M47 525h175v-50h-175v50zM222 525v175h50v-175h-50zM272 475v-175h-50v175h50zM447 475h-175v50h175v-50zM282 571l94 93l36 -35l-94 -94zM118 664l94 -93l-36 -36l-94 94zM376 336l-94 93l36 36l94 -94zM212 429l-94 -93l-36 35l94 94z" />
    <glyph glyph-name="f.ss02" horiz-adv-x="380" 
d="M380 702l-24 -51q-33 15 -60 15q-58 0 -89 -45q-22 -32 -22 -93v-72h190v-54h-190v-402h-57v402h-118v54h118v69q0 90 39 137q49 58 130 58q45 0 83 -18z" />
    <glyph glyph-name="j.ss02" horiz-adv-x="270" 
d="M-60 -232l23 50q30 -14 57 -14q60 0 89 43q19 28 19 95v514h57v-514q0 -93 -36 -136q-46 -56 -126 -56q-50 0 -83 18zM106 614q0 21 14.5 36t35.5 15t36 -15t15 -36t-15 -35.5t-36 -14.5t-35.5 14.5t-14.5 35.5z" />
    <glyph glyph-name="t.ss02" horiz-adv-x="410" 
d="M364 60l21 -50q-42 -20 -96 -20q-78 0 -123 51q-38 43 -38 121v240h-128v54h128v124h57v-124h200v-54h-200v-241q0 -55 24 -84q29 -33 83 -33q38 0 72 16z" />
    <glyph glyph-name="fi.ss02" horiz-adv-x="599" 
d="M185 456h329v-456h-57v402h-272v-402h-57v402h-118v54h118v70q0 89 39 136q49 58 130 58q45 0 83 -18l-24 -51q-35 15 -60 15q-58 0 -89 -45q-22 -32 -22 -92v-73zM435 614q0 21 14.5 36t35.5 15t36 -15t15 -36t-15 -35.5t-36 -14.5t-35.5 14.5t-14.5 35.5z" />
    <glyph glyph-name="fl.ss02" horiz-adv-x="599" 
d="M185 456h272v254h57v-710h-57v402h-272v-402h-57v402h-118v54h118v69q0 90 39 137q49 58 130 58q45 0 83 -18l-24 -51q-35 15 -60 15q-58 0 -89 -45q-22 -32 -22 -93v-72z" />
    <glyph glyph-name="uniFB00.ss02" horiz-adv-x="735" 
d="M735 702l-24 -51q-33 15 -60 15q-58 0 -89 -45q-22 -32 -22 -93v-72h188v-54h-188v-402h-57v402h-298v-402h-57v402h-118v54h118v69q0 90 39 137q49 58 130 58q45 0 83 -18l-24 -51q-33 15 -60 15q-58 0 -89 -45q-22 -32 -22 -93v-72h298v69q0 90 39 137q49 58 130 58
q46 0 83 -18z" />
    <glyph glyph-name="uniFB03.ss02" horiz-adv-x="954" 
d="M869 456v-456h-57v402h-272v-402h-57v402h-298v-402h-57v402h-118v54h118v69q0 90 39 137q49 58 130 58q45 0 83 -18l-24 -51q-33 15 -60 15q-58 0 -89 -45q-22 -32 -22 -93v-72h298v69q0 90 39 137q49 58 130 58q46 0 83 -18l-24 -51q-33 15 -60 15q-58 0 -89 -45
q-22 -32 -22 -93v-72h329zM790 614q0 21 14.5 36t35.5 15t36 -15t15 -36t-15 -35.5t-36 -14.5t-35.5 14.5t-14.5 35.5z" />
    <glyph glyph-name="uniFB04.ss02" horiz-adv-x="954" 
d="M812 0v402h-272v-402h-57v402h-298v-402h-57v402h-118v54h118v69q0 90 39 137q49 58 130 58q45 0 83 -18l-24 -51q-33 15 -60 15q-58 0 -89 -45q-22 -32 -22 -93v-72h298v69q0 90 39 137q49 58 130 58q46 0 83 -18l-24 -51q-33 15 -60 15q-58 0 -89 -45q-22 -32 -22 -93
v-72h272v254h57v-710h-57z" />
    <glyph glyph-name="tbar.ss02" horiz-adv-x="410" 
d="M0 262h128v140h-128v54h128v124h57v-124h200v-54h-200v-140h200v-54h-200v-47q0 -55 24 -84q29 -33 83 -33q38 0 72 16l21 -50q-42 -20 -96 -20q-78 0 -123 51q-38 43 -38 121v46h-128v54z" />
    <glyph glyph-name="ij.ss02" horiz-adv-x="497" 
d="M85 0v456h57v-456h-57zM63 614q0 21 14.5 36t35.5 15t36 -15t15 -36t-15 -35.5t-36 -14.5t-35.5 14.5t-14.5 35.5zM167 -232l23 50q30 -14 57 -14q60 0 89 43q19 28 19 95v514h57v-514q0 -93 -36 -136q-46 -56 -126 -56q-50 0 -83 18zM333 614q0 21 14.5 36t35.5 15
t36 -15t15 -36t-15 -35.5t-36 -14.5t-35.5 14.5t-14.5 35.5z" />
    <glyph glyph-name="tcommaaccent.ss02" horiz-adv-x="410" 
d="M248 -40h75l-95 -140h-45zM364 60l21 -50q-42 -20 -96 -20q-78 0 -123 51q-38 43 -38 121v240h-128v54h128v124h57v-124h200v-54h-200v-241q0 -55 24 -84q29 -33 83 -33q38 0 72 16z" />
    <glyph glyph-name="tcaron.ss02" horiz-adv-x="410" 
d="M290 700h75l-95 -140h-45zM364 60l21 -50q-42 -20 -96 -20q-78 0 -123 51q-38 43 -38 121v240h-128v54h128v124h57v-124h200v-54h-200v-241q0 -55 24 -84q29 -33 83 -33q38 0 72 16z" />
    <glyph glyph-name="jcircumflex.ss02" horiz-adv-x="270" 
d="M-60 -232l23 50q30 -14 57 -14q60 0 89 43q19 28 19 95v514h57v-514q0 -93 -36 -136q-46 -56 -126 -56q-50 0 -83 18zM146 624l-85 -94h-45l95 140h70l95 -140h-45z" />
    <glyph glyph-name="uni0237.ss02" horiz-adv-x="270" 
d="M-60 -232l23 50q30 -14 57 -14q60 0 89 43q19 28 19 95v514h57v-514q0 -93 -36 -136q-46 -56 -126 -56q-50 0 -83 18z" />
    <glyph glyph-name="r.ss02" horiz-adv-x="359" 
d="M334 461l-10 -53q-16 4 -37 4q-46 0 -86.5 -28.5t-58.5 -72.5v-311h-57v456h57v-58q18 28 57 48t92 20q25 0 43 -5z" />
    <glyph glyph-name="racute.ss02" horiz-adv-x="359" 
d="M217 670h75l-95 -140h-45zM334 461l-10 -53q-16 4 -37 4q-46 0 -86.5 -28.5t-58.5 -72.5v-311h-57v456h57v-58q18 28 57 48t92 20q25 0 43 -5z" />
    <glyph glyph-name="rcaron.ss02" horiz-adv-x="359" 
d="M132 680l85 -94l85 94h45l-95 -140h-70l-95 140h45zM334 461l-10 -53q-16 4 -37 4q-46 0 -86.5 -28.5t-58.5 -72.5v-311h-57v456h57v-58q18 28 57 48t92 20q25 0 43 -5z" />
    <glyph glyph-name="rcommaaccent.ss02" horiz-adv-x="359" 
d="M85 -40h75l-95 -140h-45zM334 461l-10 -53q-16 4 -37 4q-46 0 -86.5 -28.5t-58.5 -72.5v-311h-57v456h57v-58q18 28 57 48t92 20q25 0 43 -5z" />
    </font>
</defs>
</svg>
